<?xml version="1.0" standalone="no"?>
<!DOCTYPE svg PUBLIC "-//W3C//DTD SVG 1.1//EN" "http://www.w3.org/Graphics/SVG/1.1/DTD/svg11.dtd" >
<svg xmlns="http://www.w3.org/2000/svg" xmlns:xlink="http://www.w3.org/1999/xlink" version="1.1">
<metadata></metadata>
<defs>
<font id="nowaybold_italic" horiz-adv-x="1253" >
<font-face units-per-em="2048" ascent="1536" descent="-512" />
<missing-glyph horiz-adv-x="516" />
<glyph unicode="&#x2e;&#x2e;&#x2e;" horiz-adv-x="1669" d="M92 0l72 371h368l-71 -371h-369zM651 0l72 371h369l-72 -371h-369zM1208 0l72 371h369l-72 -371h-369z" />
<glyph unicode="&#xd;" horiz-adv-x="571" />
<glyph unicode=" "  horiz-adv-x="516" />
<glyph unicode="&#x09;" horiz-adv-x="516" />
<glyph unicode="&#xa0;" horiz-adv-x="516" />
<glyph unicode="!" horiz-adv-x="548" d="M90 0l72 371h368l-71 -371h-369zM231 479l140 955h364l-233 -955h-271z" />
<glyph unicode="&#x22;" horiz-adv-x="823" d="M262 860l84 574h297l-137 -574h-244zM653 860l84 574h297l-137 -574h-244z" />
<glyph unicode="#" horiz-adv-x="1261" d="M131 371l94 252h158l70 180h-164l94 252h166l80 205h272l-80 -205h144l79 205h273l-80 -205h168l-94 -252h-170l-70 -180h176l-94 -252h-180l-78 -205h-272l77 205h-143l-78 -205h-272l78 205h-154zM655 623h144l69 180h-143z" />
<glyph unicode="$" horiz-adv-x="1120" d="M61 139l166 256q221 -112 379 -112q105 0 161 46.5t56 110.5q0 34 -19 61t-51 45t-73.5 34t-87.5 32t-92.5 34.5t-88 45.5t-73.5 61.5t-51 86.5t-19 116q0 212 109.5 336t322.5 150l31 149h273l-33 -157q181 -37 315 -136l-188 -245q-153 102 -303 102q-91 0 -138 -34.5 t-47 -90.5q0 -35 31 -61.5t80 -45.5t109 -39t119.5 -49.5t108.5 -68.5t80 -104.5t31 -149.5q0 -92 -13.5 -164.5t-46.5 -137t-86.5 -109t-137 -74t-195.5 -39.5l-35 -183h-272l37 195q-106 19 -203 58t-156 81z" />
<glyph unicode="%" horiz-adv-x="1953" d="M285 954l30 181q26 155 123.5 235t257.5 80q156 0 231.5 -82t45.5 -233l-37 -181q-62 -313 -375 -313q-155 0 -228.5 80t-47.5 233zM547 938q-6 -28 9 -43.5t40 -15.5q24 0 45 15.5t27 43.5l41 217q6 28 -8.5 43.5t-38.5 15.5q-25 0 -45.5 -15.5t-26.5 -43.5zM569 -59 l805 1552h289l-805 -1552h-289zM1262 297l30 180q26 155 123.5 235.5t257.5 80.5q156 0 231.5 -82.5t45.5 -233.5l-37 -180q-62 -313 -375 -313q-155 0 -228.5 80t-47.5 233zM1524 281q-6 -28 9 -44t40 -16q24 0 45 16t27 44l41 217q6 28 -9 43.5t-39 15.5q-25 0 -45 -15.5 t-26 -43.5z" />
<glyph unicode="&#x26;" horiz-adv-x="1349" d="M131 350q0 177 73 278t236 169q-75 126 -75 237q0 187 129 301.5t356 114.5q116 0 232 -36.5t184 -90.5l-164 -238q-125 76 -266 76q-67 0 -103.5 -26t-36.5 -72q0 -40 37 -98l260 -398q50 85 105 258h299q-29 -136 -94.5 -268t-139.5 -227l195 -330h-383l-51 82 q-156 -98 -379 -98q-187 0 -300.5 97t-113.5 269zM465 397q0 -59 38 -95t105 -36q104 0 162 49l-182 260q-67 -31 -95 -73.5t-28 -104.5z" />
<glyph unicode="'" horiz-adv-x="432" d="M262 860l84 574h297l-137 -574h-244z" />
<glyph unicode="(" horiz-adv-x="774" d="M186 459q0 273 145.5 563.5t428.5 558.5l221 -160q-216 -240 -332.5 -480t-116.5 -458q0 -146 38 -314.5t108 -307.5l-254 -160q-113 166 -175.5 371t-62.5 387z" />
<glyph unicode=")" horiz-adv-x="774" d="M43 -139q216 240 332.5 480t116.5 458q0 146 -38 314.5t-108 307.5l272 160q109 -162 164.5 -365.5t55.5 -392.5q0 -273 -145.5 -563.5t-428.5 -558.5z" />
<glyph unicode="*" horiz-adv-x="948" d="M330 1176l116 215l189 -95l18 240h238l-76 -240l225 95l35 -215l-248 -60l140 -182l-211 -141l-86 217l-168 -217l-158 141l209 182z" />
<glyph unicode="+" horiz-adv-x="1046" d="M127 485l53 271h350l68 354h279l-68 -354h352l-53 -271h-352l-70 -356h-278l69 356h-350z" />
<glyph unicode="," horiz-adv-x="552" d="M10 -197q186 97 209 197h-127l72 371h368l-49 -254q-37 -196 -122 -299t-263 -183z" />
<glyph unicode="-" horiz-adv-x="765" d="M166 481l53 279h623l-54 -279h-622z" />
<glyph unicode="." horiz-adv-x="552" d="M92 0l72 371h368l-71 -371h-369z" />
<glyph unicode="/" horiz-adv-x="874" d="M-27 -162l895 1757h316l-895 -1757h-316z" />
<glyph unicode="0" horiz-adv-x="1220" d="M194 354.5q-2 80.5 13 169.5l76 385q23 118 68.5 213.5t117 170.5t177 116t237.5 41q103 0 183 -28t129.5 -77.5t78.5 -117.5t31 -148.5t-13 -169.5l-73 -385q-23 -118 -68.5 -213.5t-117.5 -170t-177.5 -115.5t-237.5 -41q-103 0 -183.5 28t-130 77.5t-79 117t-31.5 148 zM538 411q2 -56 34.5 -88t95.5 -32q93 0 143 65t74 187l67 348q14 77 11.5 133t-34.5 87.5t-95 31.5q-93 0 -144 -64.5t-74 -187.5l-67 -348q-13 -76 -11 -132z" />
<glyph unicode="1" horiz-adv-x="1083" d="M113 0l55 285h328l157 811l-323 -115q-5 18 -56 256l547 197h234l-224 -1149h242l-55 -285h-905z" />
<glyph unicode="2" horiz-adv-x="1136" d="M82 0l43 217q19 98 73 186t123.5 153t149.5 123t156 105t138 90.5t100 89t38 89.5q0 51 -40 78.5t-111 27.5q-144 0 -340 -110l-111 233q120 77 260.5 122.5t269.5 45.5q195 0 306.5 -91.5t111.5 -242.5q0 -94 -39.5 -179t-103.5 -148.5t-141.5 -120.5t-157.5 -105 t-147.5 -91t-114.5 -88.5t-56 -88.5h627l-57 -295h-977z" />
<glyph unicode="3" horiz-adv-x="1140" d="M80 147l176 238q176 -109 334 -109q120 0 177.5 54.5t57.5 146.5q0 58 -40 93.5t-115 35.5h-269l52 264h241q88 0 145.5 44t57.5 128q0 54 -33 84.5t-102 30.5q-85 0 -178 -30t-168 -74l-97 235q127 79 266 120.5t265 41.5q193 0 293 -90t100 -244q0 -102 -46 -195 t-134 -157q100 -84 100 -240q0 -83 -15.5 -155t-57 -145t-107 -124.5t-173.5 -83.5t-249 -32q-135 0 -263.5 48t-217.5 115z" />
<glyph unicode="4" horiz-adv-x="1243" d="M115 258l43 217l583 959h338l-549 -891h256l66 340h324l-66 -340h170l-55 -285h-170l-49 -258h-324l49 258h-616z" />
<glyph unicode="5" horiz-adv-x="1173" d="M98 150l172 233q193 -107 336 -107q119 0 179.5 66.5t60.5 167.5q0 71 -43.5 115.5t-126.5 44.5q-108 0 -248 -72l-154 109l185 727h813l-58 -289h-536l-55 -219q66 24 153 24q204 0 306 -105t102 -276q0 -86 -15 -163t-56 -156.5t-105 -136.5t-170 -93t-244 -36 q-130 0 -266.5 44.5t-229.5 121.5z" />
<glyph unicode="6" horiz-adv-x="1230" d="M193 487l69 367q25 130 77 235.5t131.5 187t196 126.5t259.5 45q244 0 424 -141l-172 -238q-68 47 -131 68.5t-144 21.5q-112 0 -191.5 -60.5t-101.5 -178.5l-8 -46q116 93 258 93q182 0 280.5 -99.5t98.5 -277.5q0 -101 -23.5 -191.5t-73.5 -167t-121 -132t-171.5 -86.5 t-220.5 -31q-235 0 -357 141t-79 364zM526 487q-21 -105 17 -160t123 -55q102 0 166.5 70t64.5 195q0 149 -152 149q-102 0 -198 -92z" />
<glyph unicode="7" horiz-adv-x="1189" d="M201 0l739 1141h-625l58 293h1001l-43 -222l-772 -1212h-358z" />
<glyph unicode="8" horiz-adv-x="1226" d="M166 346q0 141 80 244t207 166q-56 43 -91.5 107.5t-35.5 142.5q0 92 36.5 172.5t104.5 141t175.5 95.5t240.5 35q201 0 313.5 -91t112.5 -241q0 -219 -246 -362q70 -43 113 -115.5t43 -161.5q0 -219 -161.5 -357t-449.5 -138q-211 0 -326.5 97t-115.5 265zM502 406 q0 -63 44 -99.5t118 -36.5q97 0 161 52t64 137q0 111 -158 153q-229 -55 -229 -206zM655 1020q0 -93 125 -150q193 73 193 195q0 46 -34 74t-101 28q-87 0 -135 -41t-48 -106z" />
<glyph unicode="9" horiz-adv-x="1230" d="M160 123l172 237q68 -47 130.5 -68.5t143.5 -21.5q112 0 191.5 60.5t101.5 179.5l8 45q-115 -92 -258 -92q-182 0 -280.5 99.5t-98.5 277.5q0 127 39.5 236.5t115.5 192.5t195 131t269 48q234 0 353.5 -141.5t76.5 -364.5l-72 -367q-116 -593 -649 -593q-264 0 -438 141z M612 893q0 -150 152 -150q101 0 199 93l20 106q21 105 -16.5 160t-122.5 55q-102 0 -167 -69.5t-65 -194.5z" />
<glyph unicode=":" horiz-adv-x="552" d="M92 0l72 371h368l-71 -371h-369zM229 711l74 370h369l-74 -370h-369z" />
<glyph unicode=";" horiz-adv-x="552" d="M10 -197q186 97 209 197h-127l72 371h368l-49 -254q-37 -196 -122 -299t-263 -183zM229 711l72 370h369l-72 -370h-369z" />
<glyph unicode="&#x3c;" horiz-adv-x="1095" d="M199 528l32 164l992 459l-58 -307l-563 -244l469 -244l-59 -286z" />
<glyph unicode="=" horiz-adv-x="1042" d="M82 254l53 270h981l-53 -270h-981zM172 717l53 270h981l-53 -270h-981z" />
<glyph unicode="&#x3e;" horiz-adv-x="1095" d="M111 70l57 307l563 244l-469 243l60 287l813 -459l-31 -164z" />
<glyph unicode="?" horiz-adv-x="1079" d="M272 0l72 371h369l-72 -371h-369zM293 1303q239 147 510 147q205 0 312.5 -87.5t107.5 -229.5q0 -79 -25.5 -143.5t-67.5 -107t-92.5 -76.5t-102 -59t-95.5 -48t-74.5 -50.5t-36.5 -58.5l-20 -111h-322l31 154q15 76 69.5 134.5t120 94t129.5 66.5t107 68.5t43 82.5 q0 43 -41.5 66.5t-112.5 23.5q-137 0 -354 -102z" />
<glyph unicode="@" horiz-adv-x="1626" d="M209 436q0 190 54.5 351t158 281.5t264 188.5t361.5 68q273 0 440.5 -140.5t167.5 -391.5q0 -265 -125 -420.5t-318 -155.5q-72 0 -121.5 26t-64.5 72h-8q-90 -98 -215 -98q-115 0 -171.5 71.5t-27.5 223.5l31 160q58 301 285 301q53 0 94.5 -22.5t54.5 -51.5l37 68h166 l-86 -441q-10 -55 4.5 -80.5t56.5 -25.5q185 0 185 328q0 171 -103 266.5t-303 95.5q-143 0 -256 -48.5t-185 -134.5t-109.5 -200.5t-37.5 -249.5q0 -200 109.5 -302.5t324.5 -102.5q253 0 504 100l35 -182q-116 -61 -272.5 -96t-311.5 -35q-301 0 -459.5 148t-158.5 429z M817 522q-18 -98 57 -98q53 0 95 39l51 264q-27 39 -78 39q-80 0 -98 -98z" />
<glyph unicode="A" horiz-adv-x="1269" d="M18 0l734 1434h323l176 -1434h-356l-27 281h-352l-133 -281h-365zM633 573h223l-25 416h-8z" />
<glyph unicode="B" horiz-adv-x="1230" d="M131 0l279 1434h538q187 0 294.5 -89.5t107.5 -236.5q0 -126 -62.5 -219t-167.5 -141v-9q133 -77 133 -252q0 -230 -151 -358.5t-457 -128.5h-514zM524 291h148q123 0 179 44t56 144q0 115 -164 115h-161zM637 870h180q92 0 135 46.5t43 125.5q0 47 -32 74t-95 27h-180z " />
<glyph unicode="C" horiz-adv-x="1165" d="M182 510l80 414q47 244 213 385t434 141q102 0 179.5 -23.5t128 -68.5t82 -99t51.5 -126l-297 -134q-34 148 -189 148q-110 0 -175 -67t-87 -175l-72 -377q-9 -36 -9 -70q-1 -12 1 -24q4 -44 22 -76.5t56.5 -51.5t95.5 -19q158 0 252 149l250 -137q-45 -72 -95.5 -126 t-118.5 -98.5t-157 -67.5t-198 -23q-268 0 -381 142q-80 100 -80 250q0 63 14 134z" />
<glyph unicode="D" horiz-adv-x="1320" d="M131 0l279 1434h508q232 0 358.5 -133t126.5 -386q0 -208 -56.5 -381.5t-154 -289.5t-229 -180t-281.5 -64h-551zM526 291h144q172 0 276.5 151.5t104.5 417.5q0 58 -11 106t-35 89t-67.5 64.5t-103.5 23.5h-144z" />
<glyph unicode="E" horiz-adv-x="1120" d="M131 0l279 1434h878l-57 -291h-539l-51 -266h492l-56 -291h-491l-58 -295h539l-57 -291h-879z" />
<glyph unicode="F" horiz-adv-x="1101" d="M131 0l279 1434h878l-57 -291h-539l-57 -301h491l-57 -291h-491l-107 -551h-340z" />
<glyph unicode="G" d="M184 512l80 412q47 243 215 384.5t436 141.5q102 0 179.5 -23.5t128 -68.5t82 -99t51.5 -126l-297 -134q-34 148 -191 148q-105 0 -173.5 -68t-90.5 -174l-72 -375q-8 -40 -8 -74q0 -60 24 -103q38 -68 148 -68q134 0 222 92l36 182h-247l53 272h557l-115 -589 q-115 -120 -253.5 -189t-321.5 -69q-268 0 -379 142q-78 100 -78 250q0 63 14 136z" />
<glyph unicode="H" horiz-adv-x="1343" d="M131 0l279 1434h340l-107 -553h401l107 553h340l-279 -1434h-340l115 588h-401l-115 -588h-340z" />
<glyph unicode="I" horiz-adv-x="602" d="M131 0l279 1434h340l-279 -1434h-340z" />
<glyph unicode="J" horiz-adv-x="870" d="M45 25l72 276q98 -18 176 -18q95 0 135 51t64 168l184 932h342l-180 -928q-13 -68 -27 -120.5t-36.5 -109t-50.5 -98t-69.5 -79.5t-93 -62.5t-121 -38.5t-153.5 -14q-47 0 -118 11t-124 30z" />
<glyph unicode="K" horiz-adv-x="1220" d="M131 0l279 1434h340l-105 -543h64l387 543h370l-510 -672l252 -762h-370l-187 596h-63l-117 -596h-340z" />
<glyph unicode="L" horiz-adv-x="1064" d="M131 0l279 1434h340l-218 -1123h537l-61 -311h-877z" />
<glyph unicode="M" horiz-adv-x="1572" d="M131 0l279 1434h264l235 -744h9l524 744h278l-278 -1434h-328l133 684h-8l-307 -446h-197l-135 446h-8l-133 -684h-328z" />
<glyph unicode="N" horiz-adv-x="1363" d="M131 0l279 1434h305l334 -762h8l147 762h328l-279 -1434h-299l-333 786h-9l-153 -786h-328z" />
<glyph unicode="O" d="M182 508l82 416q23 121 71 215.5t124 165t186.5 108t251.5 37.5q268 0 384 -142q83 -101 83 -253q0 -61 -14 -131l-82 -416q-48 -249 -202.5 -386.5t-426.5 -137.5q-270 0 -387 140q-83 100 -83 253q0 61 13 131zM528 530q-9 -46 -8 -83q0 -162 164 -162 q105 0 163.5 60.5t82.5 184.5l74 375q9 46 9 84q0 158 -161 158q-203 0 -250 -242z" />
<glyph unicode="P" horiz-adv-x="1218" d="M131 0l279 1434h454q229 0 354 -92.5t125 -282.5q0 -592 -649 -592h-133l-90 -467h-340zM618 760h109q131 0 197.5 53t66.5 186q0 144 -190 144h-109z" />
<glyph unicode="Q" d="M182 508l82 416q23 121 71 215.5t124 165t186.5 108t251.5 37.5q268 0 384 -142q83 -101 83 -253q0 -61 -14 -131l-82 -416q-35 -179 -123 -301l127 -137l-232 -201l-133 160q-121 -45 -268 -45q-270 0 -387 140q-83 101 -83 253q0 61 13 131zM528 530q-9 -46 -9 -83 q0 -162 165 -162h10l-84 100l205 178l96 -104q7 18 19 71l74 375q9 46 9 84q0 158 -161 158q-203 0 -250 -242z" />
<glyph unicode="R" horiz-adv-x="1216" d="M131 0l279 1434h489q208 0 326 -91.5t118 -275.5q0 -214 -89 -343t-236 -185l201 -539h-377l-148 492h-129l-96 -492h-338zM621 782h135q115 0 176 58.5t61 167.5q0 135 -188 135h-115z" />
<glyph unicode="S" horiz-adv-x="1120" d="M61 139l166 256q221 -112 379 -112q105 0 161 46.5t56 110.5q0 34 -19 61t-51 45t-73.5 34t-87.5 32t-92.5 34.5t-88 45.5t-73.5 61.5t-51 86.5t-19 116q0 240 141 367t414 127q132 0 257 -45t206 -107l-188 -245q-153 102 -303 102q-91 0 -138 -34.5t-47 -90.5 q0 -35 31 -61.5t80 -45.5t109 -39t119.5 -49.5t108.5 -68.5t80 -104.5t31 -149.5q0 -100 -16 -177.5t-57 -145.5t-107.5 -111.5t-170.5 -68.5t-243 -25q-141 0 -285 47.5t-229 107.5z" />
<glyph unicode="T" horiz-adv-x="1220" d="M283 1122l61 312h1083l-61 -312h-371l-219 -1122h-340l219 1122h-372z" />
<glyph unicode="U" horiz-adv-x="1310" d="M215 485l184 949h340l-180 -930q-9 -44 -9 -80q0 -52 20 -86q32 -57 141 -57t162 56.5t75 166.5l180 930h340l-184 -949q-23 -122 -68 -212.5t-118 -156.5t-179 -99t-245 -33q-265 0 -385 132q-87 95 -87 245q0 58 13 124z" />
<glyph unicode="V" horiz-adv-x="1255" d="M319 1434h349l47 -926h8l410 926h372l-727 -1434h-309z" />
<glyph unicode="W" horiz-adv-x="1820" d="M319 1434h359l-27 -910h8l381 910h275l28 -910h9l325 910h381l-618 -1434h-350l-35 780h-8l-340 -780h-326z" />
<glyph unicode="X" horiz-adv-x="1157" d="M16 0l496 741l-195 693h357l84 -437h8l250 437h379l-463 -693l203 -741h-359l-94 467h-8l-275 -467h-383z" />
<glyph unicode="Y" horiz-adv-x="1306" d="M317 1434h365l125 -551h12l336 551h391l-612 -875l-109 -559h-344l109 559z" />
<glyph unicode="Z" horiz-adv-x="1153" d="M88 0l45 227l729 920h-520l55 287h946l-43 -224l-731 -919h553l-57 -291h-977z" />
<glyph unicode="[" horiz-adv-x="776" d="M76 -238l344 1774h545l-54 -279h-219l-237 -1216h219l-53 -279h-545z" />
<glyph unicode="\" horiz-adv-x="874" d="M313 1595h316l211 -1757h-316z" />
<glyph unicode="]" horiz-adv-x="776" d="M61 -238l54 279h219l237 1216h-219l54 279h544l-344 -1774h-545z" />
<glyph unicode="^" horiz-adv-x="1105" d="M158 692l592 844h204l265 -844h-289l-142 482l-325 -482h-305z" />
<glyph unicode="_" horiz-adv-x="1161" d="M0 -303l49 254h1041l-50 -254h-1040z" />
<glyph unicode="`" horiz-adv-x="894" d="M541 1653h329l33 -391h-215z" />
<glyph unicode="a" horiz-adv-x="1214" d="M158 434l51 273q40 212 159.5 330t299.5 118q87 0 144.5 -32.5t82.5 -84.5l72 101h268l-154 -791q-3 -15 -3 -28q0 -68 73 -68q30 0 61 8v-215q-87 -61 -204 -61q-169 0 -215 120q-73 -59 -148.5 -89.5t-183.5 -30.5q-187 0 -265 118q-51 78 -52 198q0 61 14 134z M492 473q-8 -39 -8 -70q0 -41 14 -66q26 -44 98 -44q81 0 160 76l80 403q-51 74 -131 74q-71 0 -113.5 -44t-61.5 -136z" />
<glyph unicode="b" horiz-adv-x="1124" d="M113 0l299 1536h327l-94 -481q51 43 125.5 71.5t144.5 28.5q171 -1 243 -119q46 -76 47 -189q0 -64 -15 -140l-53 -273q-88 -450 -465 -450q-76 0 -145 33.5t-101 86.5l-47 -104h-266zM508 369q52 -76 135 -76q72 0 113.5 43.5t60.5 136.5l37 193q7 36 7 65 q0 115 -111 115q-79 0 -160 -74z" />
<glyph unicode="c" horiz-adv-x="995" d="M158 440l49 258q41 218 176.5 337.5t372.5 119.5q155 0 252 -67.5t135 -180.5l-262 -164q-40 127 -162 127q-72 0 -120.5 -45.5t-63.5 -122.5l-52 -266q-5 -25 -5 -46q0 -45 21 -76q31 -46 103 -46q55 0 105.5 27.5t111.5 99.5l213 -159q-101 -123 -212.5 -187.5 t-264.5 -64.5q-233 0 -336 122q-73 87 -73 219q0 54 12 115z" />
<glyph unicode="d" horiz-adv-x="1212" d="M158 434l51 273q40 214 155.5 331t294.5 117q70 0 133.5 -28.5t98.5 -71.5l92 481h328l-232 -1188q-3 -17 -3 -30q0 -66 75 -66q30 0 61 8v-215q-87 -61 -204 -61q-169 0 -215 120q-141 -120 -328 -120q-189 0 -268 118q-52 79 -52 199q0 61 13 133zM492 473 q-8 -39 -8 -70q0 -41 14 -66q26 -44 98 -44q81 0 160 76l80 403q-51 74 -131 74q-71 0 -113.5 -44t-61.5 -136z" />
<glyph unicode="e" horiz-adv-x="1044" d="M152 406l57 301q41 214 177 331t364 117q224 0 318 -116q65 -80 65 -208q0 -57 -13 -124l-49 -258h-582l-16 -80q-2 -13 -2 -24q1 -35 23 -59q30 -32 112 -32q152 0 322 70l49 -232q-179 -108 -440 -108q-230 0 -327 112q-69 80 -69 203q0 50 11 107zM537 690h272l8 37 q5 29 5 53q0 42 -15 69q-23 42 -94 42q-141 0 -170 -164z" />
<glyph unicode="f" horiz-adv-x="880" d="M129 -414l256 1291h-176l49 247l176 15l10 45q85 377 447 377q71 0 143 -17.5t123 -48.5l-121 -252q-65 33 -131 33q-55 0 -89.5 -25t-43.5 -71l-8 -41h270l-51 -262h-270l-256 -1291h-328z" />
<glyph unicode="g" horiz-adv-x="1114" d="M45 -328l131 238q88 -37 151.5 -49.5t141.5 -12.5q93 0 147.5 42.5t67.5 109.5l23 115q-52 -43 -126.5 -72t-144.5 -29q-179 0 -248 118q-42 72 -42 182q0 68 16 149l47 242q42 215 160 332.5t305 117.5q76 0 145 -33.5t101 -87.5l47 105h268l-213 -1092 q-43 -221 -184.5 -349t-374.5 -128q-118 0 -236 27t-182 75zM498 504q-7 -37 -7 -67q0 -43 15 -69q25 -44 96 -44q84 0 160 73l72 373q-52 76 -132 76q-72 0 -113.5 -43.5t-60.5 -136.5z" />
<glyph unicode="h" horiz-adv-x="1165" d="M113 0l299 1536h327l-92 -471q137 90 299 90q72 0 126 -20.5t85.5 -57.5t48.5 -88q16 -47 16 -102v-9q-2 -60 -14 -130l-145 -748h-328l133 680q7 34 7 61q0 41 -16 65q-26 38 -89 38q-83 0 -178 -68l-152 -776h-327z" />
<glyph unicode="i" horiz-adv-x="757" d="M203 877l53 262h502l-154 -791q-3 -15 -2 -28q0 -68 72 -68q26 0 61 12l35 -213q-35 -27 -103 -47t-126 -20q-167 0 -233 84q-42 54 -42 154q0 56 13 128l100 527h-176zM449 1255l63 322h336l-64 -322h-335z" />
<glyph unicode="j" horiz-adv-x="641" d="M-180 -358l125 241q65 -20 147 -20q44 0 73 25t38 71l178 918h-176l53 262h502l-228 -1166q-18 -90 -50.5 -159.5t-85 -124t-132 -83t-182.5 -28.5q-159 0 -262 64zM451 1255l63 322h336l-64 -322h-335z" />
<glyph unicode="k" horiz-adv-x="1130" d="M113 0l299 1536h327l-153 -791h59l252 394h371l-394 -537l89 -260q34 -100 116 -100q27 0 54 12l34 -193q-91 -77 -221 -77q-208 0 -282 254l-70 237h-62l-92 -475h-327z" />
<glyph unicode="l" horiz-adv-x="661" d="M186 379l226 1157h327l-231 -1188q-3 -15 -2 -28q0 -68 72 -68q26 0 61 12l35 -213q-35 -27 -103.5 -47t-126.5 -20q-175 0 -237 93q-37 56 -37 154q0 65 16 148z" />
<glyph unicode="m" horiz-adv-x="1726" d="M113 0l221 1139h268l8 -101q151 117 316 117q98 0 165 -34.5t99 -88.5q85 64 151 93.5t156 29.5q91 0 154 -31t93 -86q28 -55 36 -129q2 -21 3 -43q0 -56 -14 -118l-145 -748h-328l134 680q7 35 7 62q1 42 -15 64q-26 38 -89 38q-66 0 -141 -47q-12 -78 -12 -80 l-140 -717h-325l133 688q7 32 7 57q0 99 -99 99q-79 0 -164 -68l-152 -776h-327z" />
<glyph unicode="n" horiz-adv-x="1157" d="M113 0l221 1139h268l8 -101q147 117 322 117q90 0 152 -31t91 -86t37 -129q2 -21 2 -43q0 -56 -14 -118l-145 -748h-328l133 680q7 36 7 64q-1 40 -15 62q-24 38 -86 38q-79 0 -174 -68l-152 -776h-327z" />
<glyph unicode="o" horiz-adv-x="1085" d="M156 432l53 266q89 457 547 457q234 1 336 -121q72 -86 71 -219q0 -55 -12 -117l-53 -266q-89 -448 -545 -448q-235 0 -337 119q-72 84 -72 214q0 54 12 115zM487 446q-7 -36 -6 -64q-1 -44 15 -70q26 -44 100 -44q75 0 117 43t61 135l47 244q8 39 8 69q1 41 -15 67 q-26 44 -101 44t-117 -43t-61 -137z" />
<glyph unicode="p" horiz-adv-x="1124" d="M33 -414l301 1553h266l6 -105q137 121 295 121q181 0 256 -119q48 -75 48 -190q0 -65 -15 -141l-53 -273q-42 -214 -156 -331t-293 -117q-70 0 -133 28.5t-98 71.5l-97 -498h-327zM512 367q51 -74 131 -74q72 0 114.5 44.5t59.5 135.5l37 193q8 41 8 72q0 40 -14 64 q-24 44 -96 44q-79 0 -162 -76z" />
<glyph unicode="q" horiz-adv-x="1114" d="M156 432l51 273q41 216 155 333t300 117q83 0 149.5 -31.5t108.5 -89.5l47 105h266l-303 -1553h-328l98 498q-124 -100 -260 -100q-180 0 -252 118q-46 75 -46 190q0 64 14 140zM492 473q-7 -38 -7 -68q0 -42 14 -68q24 -44 95 -44q83 0 160 74l80 403q-52 76 -132 76 q-72 0 -114.5 -44t-59.5 -136z" />
<glyph unicode="r" horiz-adv-x="829" d="M113 0l221 1139h270l-2 -142q55 70 134.5 114t154.5 44q71 0 139 -37l-119 -301q-56 27 -112 27q-53 0 -111 -28.5t-104 -76.5l-144 -739h-327z" />
<glyph unicode="s" horiz-adv-x="954" d="M68 106l116 238q205 -90 334 -90q80 0 114 30.5t34 75.5q0 29 -24.5 50t-63.5 35t-86.5 28.5t-94.5 35t-86 48.5t-63.5 76t-24.5 112q0 193 119.5 301.5t347.5 108.5q222 0 393 -113l-122 -231q-161 82 -291 82q-56 0 -88.5 -19.5t-32.5 -58.5q0 -27 24.5 -46.5t63.5 -33 t86 -27t94 -34.5t86 -49.5t63.5 -77.5t24.5 -113q0 -213 -118.5 -331.5t-362.5 -118.5q-106 0 -231.5 32t-210.5 90z" />
<glyph unicode="t" horiz-adv-x="905" d="M207 877l49 247l188 15l41 209l326 32l-47 -241h287l-52 -262h-286l-101 -519q-2 -9 -2 -17q0 -28 19 -46q24 -23 71 -23q67 0 156 27l29 -233q-143 -82 -299 -82q-103 0 -172 29t-100 81q-30 54 -38 126q-2 20 -2 40q0 56 15 119l96 498h-178z" />
<glyph unicode="u" horiz-adv-x="1146" d="M178 391l146 748h327l-133 -680q-7 -36 -7 -64q1 -40 15 -62q24 -38 86 -38q80 0 174 67l152 777h328l-222 -1139h-268l-8 100q-146 -116 -317 -116q-177 0 -243 112q-43 73 -43 175q0 56 13 120z" />
<glyph unicode="v" horiz-adv-x="1073" d="M244 1139h334l22 -723h8l305 723h361l-580 -1139h-319z" />
<glyph unicode="w" horiz-adv-x="1511" d="M248 1139h334l-31 -703h8l270 703h275l-4 -703h8l244 703h356l-506 -1139h-332l-18 504h-8l-219 -504h-316z" />
<glyph unicode="x" horiz-adv-x="1007" d="M23 0l385 578l-158 561h352l55 -330h9l182 330h352l-375 -561l162 -578h-350l-62 352h-8l-196 -352h-348z" />
<glyph unicode="y" horiz-adv-x="1146" d="M76 -328l131 238q88 -37 151.5 -49.5t141.5 -12.5q94 0 150 42.5t69 109.5l14 70q-130 -86 -282 -86q-176 0 -243 112q-43 73 -43 175q0 56 13 120l146 748h327l-133 -680q-7 -36 -7 -64q0 -40 15 -62q24 -38 86 -38q80 0 174 67l152 777h328l-213 -1092 q-43 -221 -184.5 -349t-374.5 -128q-118 0 -236 27t-182 75z" />
<glyph unicode="z" horiz-adv-x="1024" d="M66 0l43 219l577 641h-426l53 279h840l-41 -209l-575 -643h475l-56 -287h-890z" />
<glyph unicode="{" horiz-adv-x="866" d="M139 510l54 278h98q41 0 68.5 30t35.5 75l70 352q29 151 116 221t212 70h231l-53 -279h-119q-62 0 -74 -61l-59 -303q-17 -92 -65.5 -156t-116.5 -84l-2 -8q61 -20 85 -84t5 -155l-60 -304q-5 -26 7 -43.5t42 -17.5h119l-53 -279h-231q-125 0 -185 70.5t-31 220.5l68 353 q10 45 -6 74.5t-57 29.5h-99z" />
<glyph unicode="|" horiz-adv-x="524" d="M53 -238l353 1809h323l-352 -1809h-324z" />
<glyph unicode="}" horiz-adv-x="866" d="M92 -238l53 279h119q30 0 49.5 18t24.5 43l59 304q17 92 66 155.5t119 83.5l2 8q-62 20 -86 84t-6 156l59 303q5 26 -7 43.5t-42 17.5h-119l53 279h232q122 0 183.5 -75t33.5 -216l-70 -352q-8 -46 7.5 -75.5t56.5 -29.5h98l-53 -278h-99q-41 0 -68.5 -29.5t-35.5 -74.5 l-68 -353q-29 -150 -116.5 -220.5t-212.5 -70.5h-232z" />
<glyph unicode="&#xa1;" horiz-adv-x="548" d="M29 -324l233 955h270l-139 -955h-364zM233 739l72 371h369l-72 -371h-369z" />
<glyph unicode="&#xa2;" horiz-adv-x="980" d="M158 526l67 355q67 351 402 397l30 156h273l-31 -158q133 -28 242 -109l-113 -241q-188 88 -307 88q-75 0 -117 -28.5t-51 -76.5l-80 -411q-9 -48 21.5 -76.5t105.5 -28.5q131 0 328 88l33 -241q-61 -39 -144 -71t-141 -38l-27 -131h-272l26 129q-151 32 -213.5 134 t-31.5 263z" />
<glyph unicode="&#xa3;" horiz-adv-x="1232" d="M57 0l47 242q35 14 55.5 23t53 25t51.5 30.5t42.5 36.5t36 45t21.5 54.5t9 67.5q0 40 -6 70h-232l49 244l162 26q-8 58 -8 107q0 123 47 217.5t128 150t180 83.5t212 28q125 0 245 -37.5t202 -95.5l-160 -238q-160 82 -301 82q-30 0 -57 -4t-59.5 -17.5t-55.5 -35 t-39 -60.5t-16 -90q0 -28 8 -90h452l-53 -270h-391q2 -16 2 -64q0 -150 -115 -239v-6h576l-56 -285h-1030z" />
<glyph unicode="&#xa4;" horiz-adv-x="1159" d="M86 281l199 168q-15 49 -15 131q0 84 17 149.5t34 94.5t48 71l-131 168l196 168l137 -172q90 47 224 47q131 0 206 -47l203 172l131 -168l-200 -168q18 -49 18 -133q0 -173 -104 -313l135 -168l-197 -168l-139 172q-86 -45 -221 -45q-137 0 -207 45l-203 -172zM516 623 q0 -73 38.5 -113.5t117.5 -40.5q118 0 176.5 70.5t58.5 185.5q0 73 -39 113.5t-116 40.5q-118 0 -177 -71.5t-59 -184.5z" />
<glyph unicode="&#xa5;" horiz-adv-x="1306" d="M254 190l47 244h264l19 96h-265l48 244h155l-205 660h373l123 -551h12l338 551h383l-463 -660h156l-47 -244h-264l-19 -96h265l-48 -244h-264l-37 -190h-344l37 190h-264z" />
<glyph unicode="&#xa6;" horiz-adv-x="524" d="M53 -238l162 828h324l-162 -828h-324zM244 743l162 828h323l-162 -828h-323z" />
<glyph unicode="&#xa7;" horiz-adv-x="1118" d="M49 -287l152 238q64 -39 150 -63.5t163 -24.5q83 0 130.5 36t47.5 93q0 40 -29.5 70t-76.5 50.5t-103.5 40t-113 47.5t-103.5 64.5t-76.5 98.5t-29.5 143q0 98 37 171.5t110 145.5q-18 59 -18 152q0 215 152.5 345t404.5 130q244 0 432 -137l-152 -238q-64 39 -150 63.5 t-163 24.5q-91 0 -139.5 -35.5t-48.5 -93.5q0 -40 29.5 -70t76.5 -50.5t103.5 -40t113 -47.5t103.5 -64.5t76.5 -98.5t29.5 -143q0 -99 -37 -172.5t-112 -144.5q20 -56 20 -152q0 -216 -147 -345.5t-400 -129.5q-244 0 -432 137zM494 569q0 -33 15 -60.5t37.5 -44.5 t56 -32.5t62 -24t65.5 -20t56 -18.5q37 42 37 88q0 39 -19.5 69.5t-56 50.5t-69 32t-80.5 26t-68 22q-36 -41 -36 -88z" />
<glyph unicode="&#xa8;" horiz-adv-x="929" d="M371 1268l55 280h274l-55 -280h-274zM776 1268l55 280h275l-55 -280h-275z" />
<glyph unicode="&#xa9;" horiz-adv-x="1820" d="M240 618q0 208 63.5 383.5t182.5 304.5t303 202t413 73q161 0 290.5 -47t215 -131t131 -200t45.5 -255q0 -208 -64 -383.5t-184 -304.5t-304 -201.5t-412 -72.5q-322 0 -501 174t-179 458zM516 653q0 -204 111 -321t325 -117q160 0 286 53.5t206 148.5t122 221t42 275 q0 203 -110 320t-324 117q-159 0 -285.5 -53.5t-207 -148t-123 -220.5t-42.5 -275zM700 655l50 254q29 153 125 239.5t260 86.5q212 0 280 -191l-176 -100q-21 54 -49 78.5t-76 24.5q-126 0 -153 -150l-46 -229q-30 -150 97 -150q91 0 168 103l155 -99q-71 -94 -153.5 -143 t-194.5 -49q-167 0 -241 88t-46 237z" />
<glyph unicode="&#xaa;" horiz-adv-x="985" d="M274 967l33 182q26 142 107 221.5t200 79.5q112 0 156 -78l47 68h178l-102 -531q-11 -65 47 -65q23 0 41 6v-143q-56 -43 -137 -43q-114 0 -146 79q-49 -39 -99 -59t-122 -20q-127 0 -178.5 80t-24.5 223zM494 977q-26 -123 69 -123q51 0 109 51l61 305q-40 50 -88 50 q-47 0 -75 -30t-42 -93z" />
<glyph unicode="&#xab;" horiz-adv-x="1398" d="M197 532l30 160l699 400l-45 -236l-316 -250l219 -237l-45 -236zM791 532l30 160l699 400l-45 -236l-316 -250l219 -237l-45 -236z" />
<glyph unicode="&#xac;" horiz-adv-x="1136" d="M139 549l54 270h1071l-140 -715h-278l86 445h-793z" />
<glyph unicode="&#xad;" horiz-adv-x="765" d="M166 481l53 279h623l-54 -279h-622z" />
<glyph unicode="&#xae;" horiz-adv-x="1093" d="M236 887q0 263 159 429.5t432 166.5q190 0 303 -107t113 -286q0 -173 -69 -308t-204.5 -214t-318.5 -79q-190 0 -302.5 108.5t-112.5 289.5zM379 903q0 -131 71.5 -200.5t219.5 -69.5q216 0 323 119.5t107 320.5q0 128 -72 199t-219 71q-109 0 -192 -33.5t-134.5 -93 t-77.5 -138.5t-26 -175zM506 721l104 539h183q84 0 131 -37t47 -105q0 -78 -37 -126.5t-88 -69.5l76 -201h-144l-59 178h-47l-35 -178h-131zM692 1010h51q93 0 93 88q0 53 -72 53h-43z" />
<glyph unicode="&#xaf;" horiz-adv-x="808" d="M352 1298l47 238h609l-47 -238h-609z" />
<glyph unicode="&#xb0;" horiz-adv-x="749" d="M303 1176q0 144 98 245t258 101q119 0 191 -69.5t72 -174.5q0 -144 -98.5 -245t-258.5 -101q-118 0 -190 69.5t-72 174.5zM498 1204q0 -41 24.5 -66.5t69.5 -25.5q59 0 98 39.5t39 97.5q0 41 -24.5 66.5t-69.5 25.5q-59 0 -98 -39.5t-39 -97.5z" />
<glyph unicode="&#xb1;" horiz-adv-x="1046" d="M33 0l51 262h981l-51 -262h-981zM160 653l53 271h350l64 333h278l-63 -333h352l-53 -271h-353l-61 -319h-278l61 319h-350z" />
<glyph unicode="&#xb2;" horiz-adv-x="845" d="M178 496l27 141q14 75 57 139.5t97 106.5t114.5 81.5t110 67t82 60.5t32.5 65q0 24 -20.5 37.5t-56.5 13.5q-99 0 -242 -67l-62 192q194 111 363 111q134 0 212.5 -61t78.5 -166q0 -69 -32 -130.5t-80.5 -103t-106.5 -80t-108.5 -65t-87 -55.5t-42.5 -54h367l-45 -233 h-658z" />
<glyph unicode="&#xb3;" horiz-adv-x="845" d="M199 602l112 170q128 -70 228 -70q78 0 110.5 35t32.5 78q0 33 -23.5 53.5t-70.5 20.5h-199l37 184h176q57 0 92 28t35 70q0 30 -21.5 47t-62.5 17q-87 0 -229 -68l-76 170q182 107 360 107q132 0 197.5 -57.5t65.5 -161.5q0 -149 -123 -234q67 -46 67 -155 q0 -347 -389 -347q-89 0 -177 33t-142 80z" />
<glyph unicode="&#xb4;" horiz-adv-x="894" d="M481 1262l185 391h329l-288 -391h-226z" />
<glyph unicode="&#xb5;" horiz-adv-x="1146" d="M23 -414l301 1553h329l-133 -680q-17 -88 6.5 -126t85.5 -38q78 0 176 67l150 777h328l-222 -1139h-268l-6 100q-149 -116 -342 -116l-78 -398h-327z" />
<glyph unicode="&#xb6;" horiz-adv-x="1277" d="M256 926q0 105 43.5 200.5t115.5 162.5t166 106t193 39h727l-53 -275h-139l-305 -1573h-267l305 1573h-94l-305 -1573h-266l192 989q-139 4 -226 102t-87 249z" />
<glyph unicode="&#xb7;" horiz-adv-x="505" d="M154 444l71 371h369l-72 -371h-368z" />
<glyph unicode="&#xb8;" horiz-adv-x="909" d="M139 -420l68 141q85 -28 145 -28q82 0 82 63q0 43 -55 43q-38 0 -74 -12l-51 61l45 152h188l-34 -76q81 6 134.5 -29.5t53.5 -113.5q0 -124 -73 -188t-203 -64q-127 0 -226 51z" />
<glyph unicode="&#xb9;" horiz-adv-x="862" d="M248 496l45 233h201l81 424l-188 -72l-47 217l358 136h193l-137 -705h157l-45 -233h-618z" />
<glyph unicode="&#xba;" horiz-adv-x="821" d="M281 965l34 178q29 148 117.5 227.5t251.5 79.5q156 0 224 -82t40 -225l-35 -178q-29 -145 -116 -223t-246 -78t-228 80t-42 221zM504 975q-12 -62 5.5 -91.5t68.5 -29.5t78.5 29t39.5 92l33 162q12 64 -6 93.5t-68 29.5q-52 0 -79 -29t-39 -94z" />
<glyph unicode="&#xbb;" horiz-adv-x="1398" d="M119 133l45 236l315 249l-219 238l45 236l543 -400l-31 -160zM713 133l45 236l315 249l-219 238l45 236l543 -400l-31 -160z" />
<glyph unicode="&#xbc;" horiz-adv-x="2160" d="M258 496l45 233h201l82 424l-189 -72l-47 217l359 136h192l-137 -705h158l-45 -233h-619zM682 -51l817 1536h309l-817 -1536h-309zM1329 178l37 187l371 573h258l-353 -541h140l33 174h235l-33 -174h109l-43 -219h-109l-35 -178h-235l35 178h-410z" />
<glyph unicode="&#xbd;" horiz-adv-x="2172" d="M258 496l45 233h201l82 424l-189 -72l-47 217l359 136h192l-137 -705h158l-45 -233h-619zM682 -51l817 1536h309l-817 -1536h-309zM1397 0l26 141q12 65 46 121.5t78 97t95 76t99.5 64t88 54t63.5 53t24 55.5q0 24 -21 37.5t-57 13.5q-97 0 -242 -68l-61 193 q192 110 362 110q134 0 212.5 -61t78.5 -166q0 -69 -32 -130.5t-80.5 -103t-106 -80t-108 -65t-87 -55.5t-42.5 -54h366l-45 -233h-657z" />
<glyph unicode="&#xbe;" horiz-adv-x="2138" d="M231 602l113 170q128 -70 227 -70q78 0 111 35t33 78q0 33 -23.5 53.5t-70.5 20.5h-199l37 184h176q57 0 92 28t35 70q0 30 -21.5 47t-62.5 17q-87 0 -229 -68l-76 170q182 107 360 107q132 0 197 -57.5t65 -161.5q0 -149 -123 -234q68 -47 68 -155q0 -347 -389 -347 q-89 0 -177.5 33t-142.5 80zM662 -51l817 1536h309l-817 -1536h-309zM1309 178l34 187l373 573h258l-352 -541h139l33 174h236l-33 -174h108l-43 -219h-108l-35 -178h-236l35 178h-409z" />
<glyph unicode="&#xbf;" horiz-adv-x="1079" d="M72 -23q0 79 25.5 143.5t67 107t92 76.5t102.5 59t95.5 48t74 50.5t36.5 58.5l21 111h321l-30 -154q-15 -76 -69.5 -134.5t-120 -94t-129.5 -66.5t-107 -68.5t-43 -82.5q0 -43 41 -66.5t112 -23.5q137 0 354 102l72 -225q-255 -158 -495 -158q-209 0 -314.5 82.5 t-105.5 234.5zM582 739l71 371h369l-72 -371h-368z" />
<glyph unicode="&#xc0;" horiz-adv-x="1269" d="M18 0l734 1434h323l176 -1434h-356l-27 281h-352l-133 -281h-365zM633 573h223l-25 416h-8zM696 1960h330l33 -391h-215z" />
<glyph unicode="&#xc1;" horiz-adv-x="1269" d="M18 0l734 1434h323l176 -1434h-356l-27 281h-352l-133 -281h-365zM633 573h223l-25 416h-8zM801 1569l184 391h330l-289 -391h-225z" />
<glyph unicode="&#xc2;" horiz-adv-x="1269" d="M18 0l734 1434h323l176 -1434h-356l-27 281h-352l-133 -281h-365zM584 1569l323 391h219l172 -391h-198l-121 164l-180 -164h-215zM633 573h223l-25 416h-8z" />
<glyph unicode="&#xc3;" horiz-adv-x="1269" d="M18 0l734 1434h323l176 -1434h-356l-27 281h-352l-133 -281h-365zM567 1628q135 252 295 252q48 0 94 -24.5t86 -49t72 -24.5q58 0 117 92l145 -72q-81 -141 -148 -196.5t-147 -55.5q-38 0 -75.5 15.5t-62.5 34t-56 34t-58 15.5q-57 0 -110 -95zM633 573h223l-25 416h-8z " />
<glyph unicode="&#xc4;" horiz-adv-x="1269" d="M18 0l734 1434h323l176 -1434h-356l-27 281h-352l-133 -281h-365zM604 1575l55 280h275l-55 -280h-275zM633 573h223l-25 416h-8zM1010 1575l55 280h274l-55 -280h-274z" />
<glyph unicode="&#xc5;" horiz-adv-x="1269" d="M18 0l734 1434h323l176 -1434h-356l-27 281h-352l-133 -281h-365zM633 573h223l-25 416h-8zM721 1718q0 126 83.5 206.5t213.5 80.5q97 0 159 -55.5t62 -145.5q0 -125 -83.5 -204.5t-213.5 -79.5q-97 0 -159 54.5t-62 143.5zM893 1745q0 -29 19.5 -47.5t52.5 -18.5 q45 0 72.5 28.5t27.5 70.5q0 30 -18 48.5t-52 18.5q-46 0 -74 -29.5t-28 -70.5z" />
<glyph unicode="&#xc6;" horiz-adv-x="1708" d="M16 0l734 1434h1126l-57 -291h-709l27 -266h583l-55 -291h-491l36 -295h445l-58 -291h-702l-27 281h-360l-131 -281h-361zM631 573h225l-27 416h-8z" />
<glyph unicode="&#xc7;" horiz-adv-x="1165" d="M182 510l80 414q47 244 213 385t434 141q102 0 179.5 -23.5t128 -68.5t82 -99t51.5 -126l-297 -134q-34 148 -189 148q-110 0 -175 -67t-87 -175l-72 -377q-12 -50 -7.5 -94t22 -76.5t56 -51.5t95.5 -19q158 0 252 149l250 -137q-44 -69 -91 -120.5t-110 -95 t-144.5 -68.5t-180.5 -29l-27 -62q81 6 135 -30t54 -113q0 -124 -73.5 -188t-203.5 -64q-126 0 -225 51l67 141q85 -28 146 -28q82 0 82 63q0 17 -13 30t-43 13q-37 0 -73 -12l-52 61l43 148q-193 35 -270.5 170.5t-36.5 343.5z" />
<glyph unicode="&#xc8;" horiz-adv-x="1120" d="M131 0l279 1434h878l-57 -291h-539l-51 -266h492l-56 -291h-491l-58 -295h539l-57 -291h-879zM672 1960h329l33 -391h-215z" />
<glyph unicode="&#xc9;" horiz-adv-x="1120" d="M131 0l279 1434h878l-57 -291h-539l-51 -266h492l-56 -291h-491l-58 -295h539l-57 -291h-879zM735 1569l185 391h329l-288 -391h-226z" />
<glyph unicode="&#xca;" horiz-adv-x="1120" d="M131 0l279 1434h878l-57 -291h-539l-51 -266h492l-56 -291h-491l-58 -295h539l-57 -291h-879zM520 1569l324 391h219l172 -391h-199l-121 164l-180 -164h-215z" />
<glyph unicode="&#xcb;" horiz-adv-x="1120" d="M131 0l279 1434h878l-57 -291h-539l-51 -266h492l-56 -291h-491l-58 -295h539l-57 -291h-879zM545 1575l55 280h274l-55 -280h-274zM950 1575l56 280h274l-55 -280h-275z" />
<glyph unicode="&#xcc;" horiz-adv-x="602" d="M131 0l279 1434h340l-279 -1434h-340zM401 1960h330l33 -391h-215z" />
<glyph unicode="&#xcd;" horiz-adv-x="602" d="M131 0l279 1434h340l-279 -1434h-340zM449 1569l184 391h330l-289 -391h-225z" />
<glyph unicode="&#xce;" horiz-adv-x="602" d="M131 0l279 1434h340l-279 -1434h-340zM254 1569l324 391h219l172 -391h-199l-121 164l-180 -164h-215z" />
<glyph unicode="&#xcf;" horiz-adv-x="602" d="M131 0l279 1434h340l-279 -1434h-340zM270 1575l56 280h274l-55 -280h-275zM676 1575l55 280h275l-56 -280h-274z" />
<glyph unicode="&#xd0;" horiz-adv-x="1343" d="M154 0l114 590h-112l53 278h113l110 566h508q232 0 358.5 -133t126.5 -386q0 -208 -56 -381.5t-153.5 -289.5t-229 -180t-281.5 -64h-551zM549 291h143q172 0 276.5 151.5t104.5 417.5q0 58 -11 106t-35 89t-67.5 64.5t-103.5 23.5h-143l-54 -275h236l-53 -278h-236z" />
<glyph unicode="&#xd1;" horiz-adv-x="1363" d="M131 0l279 1434h305l334 -762h8l147 762h328l-279 -1434h-299l-333 786h-9l-153 -786h-328zM633 1628q135 252 295 252q48 0 94 -24.5t86 -49t72 -24.5q57 0 116 92l146 -72q-81 -141 -148 -196.5t-147 -55.5q-38 0 -75.5 15.5t-62.5 34t-56 34t-58 15.5q-58 0 -111 -95z " />
<glyph unicode="&#xd2;" d="M182 508l82 416q23 121 71 215.5t124 165t186.5 108t251.5 37.5q268 0 384 -142t69 -384l-82 -416q-48 -249 -202.5 -386.5t-426.5 -137.5q-270 0 -387 140.5t-70 383.5zM528 530q-47 -245 156 -245q105 0 163.5 60.5t82.5 184.5l74 375q47 242 -152 242 q-203 0 -250 -242zM715 1960h329l33 -391h-215z" />
<glyph unicode="&#xd3;" d="M182 508l82 416q23 121 71 215.5t124 165t186.5 108t251.5 37.5q268 0 384 -142t69 -384l-82 -416q-48 -249 -202.5 -386.5t-426.5 -137.5q-270 0 -387 140.5t-70 383.5zM528 530q-47 -245 156 -245q105 0 163.5 60.5t82.5 184.5l74 375q47 242 -152 242 q-203 0 -250 -242zM772 1569l184 391h330l-289 -391h-225z" />
<glyph unicode="&#xd4;" d="M182 508l82 416q23 121 71 215.5t124 165t186.5 108t251.5 37.5q268 0 384 -142t69 -384l-82 -416q-48 -249 -202.5 -386.5t-426.5 -137.5q-270 0 -387 140.5t-70 383.5zM528 530q-47 -245 156 -245q105 0 163.5 60.5t82.5 184.5l74 375q47 242 -152 242 q-203 0 -250 -242zM580 1569l323 391h219l172 -391h-198l-121 164l-180 -164h-215z" />
<glyph unicode="&#xd5;" d="M182 508l82 416q23 121 71 215.5t124 165t186.5 108t251.5 37.5q268 0 384 -142t69 -384l-82 -416q-48 -249 -202.5 -386.5t-426.5 -137.5q-270 0 -387 140.5t-70 383.5zM528 530q-47 -245 156 -245q105 0 163.5 60.5t82.5 184.5l74 375q47 242 -152 242 q-203 0 -250 -242zM559 1628q135 252 295 252q48 0 94 -24.5t86 -49t72 -24.5q58 0 117 92l145 -72q-81 -141 -148 -196.5t-147 -55.5q-38 0 -75.5 15.5t-62.5 34t-56 34t-58 15.5q-57 0 -110 -95z" />
<glyph unicode="&#xd6;" d="M182 508l82 416q23 121 71 215.5t124 165t186.5 108t251.5 37.5q268 0 384 -142t69 -384l-82 -416q-48 -249 -202.5 -386.5t-426.5 -137.5q-270 0 -387 140.5t-70 383.5zM528 530q-47 -245 156 -245q105 0 163.5 60.5t82.5 184.5l74 375q47 242 -152 242 q-203 0 -250 -242zM596 1575l55 280h275l-56 -280h-274zM1001 1575l56 280h274l-55 -280h-275z" />
<glyph unicode="&#xd7;" horiz-adv-x="1056" d="M145 356l322 267l-203 256l217 184l203 -254l303 254l162 -195l-307 -256l207 -256l-218 -184l-204 254l-320 -264z" />
<glyph unicode="&#xd8;" d="M150 -127l1001 1688h229l-1001 -1688h-229zM182 508l82 416q23 121 71 215.5t124 165t186.5 108t251.5 37.5q268 0 384 -142t69 -384l-82 -416q-48 -249 -202.5 -386.5t-426.5 -137.5q-270 0 -387 140.5t-70 383.5zM528 530q-47 -245 156 -245q105 0 163.5 60.5 t82.5 184.5l74 375q47 242 -152 242q-203 0 -250 -242z" />
<glyph unicode="&#xd9;" horiz-adv-x="1310" d="M215 485l184 949h340l-180 -930q-22 -109 10.5 -166t141.5 -57t162 56.5t75 166.5l180 930h340l-184 -949q-23 -122 -68 -212.5t-118 -156.5t-179 -99t-245 -33q-265 0 -385 131.5t-74 369.5zM735 1960h330l33 -391h-215z" />
<glyph unicode="&#xda;" horiz-adv-x="1310" d="M215 485l184 949h340l-180 -930q-22 -109 10.5 -166t141.5 -57t162 56.5t75 166.5l180 930h340l-184 -949q-23 -122 -68 -212.5t-118 -156.5t-179 -99t-245 -33q-265 0 -385 131.5t-74 369.5zM819 1569l185 391h329l-289 -391h-225z" />
<glyph unicode="&#xdb;" horiz-adv-x="1310" d="M215 485l184 949h340l-180 -930q-22 -109 10.5 -166t141.5 -57t162 56.5t75 166.5l180 930h340l-184 -949q-23 -122 -68 -212.5t-118 -156.5t-179 -99t-245 -33q-265 0 -385 131.5t-74 369.5zM604 1569l324 391h219l172 -391h-199l-121 164l-180 -164h-215z" />
<glyph unicode="&#xdc;" horiz-adv-x="1310" d="M215 485l184 949h340l-180 -930q-22 -109 10.5 -166t141.5 -57t162 56.5t75 166.5l180 930h340l-184 -949q-23 -122 -68 -212.5t-118 -156.5t-179 -99t-245 -33q-265 0 -385 131.5t-74 369.5zM629 1575l55 280h274l-55 -280h-274zM1034 1575l56 280h274l-55 -280h-275z " />
<glyph unicode="&#xdd;" horiz-adv-x="1306" d="M317 1434h365l125 -551h12l336 551h391l-612 -875l-109 -559h-344l109 559zM821 1556l185 392h329l-288 -392h-226z" />
<glyph unicode="&#xde;" horiz-adv-x="1218" d="M131 0l279 1434h340l-39 -199h114q117 0 201 -16.5t149 -56.5t97.5 -111.5t32.5 -176.5q0 -606 -650 -606h-133l-51 -268h-340zM580 561h108q131 0 197.5 55t66.5 193q0 74 -43.5 104.5t-144.5 30.5h-109z" />
<glyph unicode="&#xdf;" horiz-adv-x="1275" d="M113 0l209 1075q48 248 205 367t403 119q208 0 332 -108.5t124 -266.5q0 -250 -217 -367l-2 -8q64 -35 102 -102.5t38 -155.5q0 -553 -652 -553h-137l55 283h138q266 0 266 241q0 29 -8.5 55t-27.5 49.5t-56 37.5t-88 14h-146l49 262h101q77 0 130 16t80.5 46t38.5 63 t11 76q0 58 -44 97.5t-128 39.5q-109 0 -171 -54t-77 -136l-211 -1090h-317z" />
<glyph unicode="&#xe0;" horiz-adv-x="1214" d="M158 434l51 273q40 212 159.5 330t299.5 118q87 0 144.5 -32.5t82.5 -84.5l72 101h268l-154 -791q-16 -96 70 -96q30 0 61 8v-215q-87 -61 -204 -61q-169 0 -215 120q-73 -59 -148.5 -89.5t-183.5 -30.5q-188 0 -265.5 118.5t-37.5 331.5zM492 473q-19 -92 6.5 -136 t97.5 -44q81 0 160 76l80 403q-51 74 -131 74q-71 0 -113.5 -44t-61.5 -136zM586 1653h329l33 -391h-215z" />
<glyph unicode="&#xe1;" horiz-adv-x="1214" d="M158 434l51 273q40 212 159.5 330t299.5 118q87 0 144.5 -32.5t82.5 -84.5l72 101h268l-154 -791q-16 -96 70 -96q30 0 61 8v-215q-87 -61 -204 -61q-169 0 -215 120q-73 -59 -148.5 -89.5t-183.5 -30.5q-188 0 -265.5 118.5t-37.5 331.5zM492 473q-19 -92 6.5 -136 t97.5 -44q81 0 160 76l80 403q-51 74 -131 74q-71 0 -113.5 -44t-61.5 -136zM662 1262l184 391h330l-289 -391h-225z" />
<glyph unicode="&#xe2;" horiz-adv-x="1214" d="M158 434l51 273q40 212 159.5 330t299.5 118q87 0 144.5 -32.5t82.5 -84.5l72 101h268l-154 -791q-16 -96 70 -96q30 0 61 8v-215q-87 -61 -204 -61q-169 0 -215 120q-73 -59 -148.5 -89.5t-183.5 -30.5q-188 0 -265.5 118.5t-37.5 331.5zM440 1262l324 391h219l172 -391 h-199l-120 163l-181 -163h-215zM492 473q-19 -92 6.5 -136t97.5 -44q81 0 160 76l80 403q-51 74 -131 74q-71 0 -113.5 -44t-61.5 -136z" />
<glyph unicode="&#xe3;" horiz-adv-x="1214" d="M158 434l51 273q40 212 159.5 330t299.5 118q87 0 144.5 -32.5t82.5 -84.5l72 101h268l-154 -791q-16 -96 70 -96q30 0 61 8v-215q-87 -61 -204 -61q-169 0 -215 120q-73 -59 -148.5 -89.5t-183.5 -30.5q-188 0 -265.5 118.5t-37.5 331.5zM414 1321q135 252 295 252 q48 0 94 -24.5t86 -49t72 -24.5q57 0 116 92l146 -72q-81 -141 -148 -196.5t-147 -55.5q-48 0 -93.5 24.5t-85.5 49t-73 24.5q-59 0 -111 -94zM492 473q-19 -92 6.5 -136t97.5 -44q81 0 160 76l80 403q-51 74 -131 74q-71 0 -113.5 -44t-61.5 -136z" />
<glyph unicode="&#xe4;" horiz-adv-x="1214" d="M158 434l51 273q40 212 159.5 330t299.5 118q87 0 144.5 -32.5t82.5 -84.5l72 101h268l-154 -791q-16 -96 70 -96q30 0 61 8v-215q-87 -61 -204 -61q-169 0 -215 120q-73 -59 -148.5 -89.5t-183.5 -30.5q-188 0 -265.5 118.5t-37.5 331.5zM461 1268l55 280h275l-56 -280 h-274zM492 473q-19 -92 6.5 -136t97.5 -44q81 0 160 76l80 403q-51 74 -131 74q-71 0 -113.5 -44t-61.5 -136zM866 1268l56 280h274l-55 -280h-275z" />
<glyph unicode="&#xe5;" horiz-adv-x="1214" d="M158 434l51 273q40 212 159.5 330t299.5 118q87 0 144.5 -32.5t82.5 -84.5l72 101h268l-154 -791q-16 -96 70 -96q30 0 61 8v-215q-87 -61 -204 -61q-169 0 -215 120q-73 -59 -148.5 -89.5t-183.5 -30.5q-188 0 -265.5 118.5t-37.5 331.5zM492 473q-19 -92 6.5 -136 t97.5 -44q81 0 160 76l80 403q-51 74 -131 74q-71 0 -113.5 -44t-61.5 -136zM580 1425q0 126 83.5 206.5t213.5 80.5q97 0 159 -55.5t62 -145.5q0 -125 -83.5 -204.5t-213.5 -79.5q-97 0 -159 54.5t-62 143.5zM752 1452q0 -29 19 -47.5t52 -18.5q45 0 73 28.5t28 70.5 q0 30 -18 48.5t-52 18.5q-46 0 -74 -29.5t-28 -70.5z" />
<glyph unicode="&#xe6;" horiz-adv-x="1632" d="M121 254q0 99 38.5 179t102.5 132.5t152.5 88.5t184 51.5t200.5 15.5l10 49q10 51 -17.5 82t-109.5 31q-142 0 -336 -84l-67 227q113 61 242 95t241 34q183 0 280 -72q128 72 299 72q453 0 367 -448l-49 -258h-582l-14 -68q-13 -57 19 -92t112 -35q82 0 152 13.5 t184 56.5l35 -232q-181 -108 -443 -108q-256 0 -342 157q-145 -157 -354 -157q-130 0 -217.5 73.5t-87.5 196.5zM453 326q0 -38 24.5 -60t69.5 -22q105 0 178 90l31 166q-83 0 -150 -18t-110 -58.5t-43 -97.5zM1124 690h273l6 37q13 80 -10.5 122t-94.5 42q-139 0 -168 -164 z" />
<glyph unicode="&#xe7;" horiz-adv-x="995" d="M158 440l49 258q41 218 176.5 337.5t372.5 119.5q155 0 252 -67.5t135 -180.5l-262 -164q-40 127 -162 127q-72 0 -120.5 -45.5t-63.5 -122.5l-52 -266q-15 -76 16 -122t103 -46q55 0 105.5 27.5t111.5 99.5l213 -159q-98 -118 -203 -181t-247 -69l-27 -62 q81 6 134.5 -29.5t53.5 -113.5q0 -124 -73 -188t-203 -64q-126 0 -225 51l67 141q85 -28 146 -28q82 0 82 63q0 17 -13 30t-43 13q-37 0 -73 -12l-52 61l45 152q-153 38 -215 152.5t-28 287.5z" />
<glyph unicode="&#xe8;" horiz-adv-x="1044" d="M152 406l57 301q41 214 177 331t364 117q225 0 318.5 -116t51.5 -332l-49 -258h-582l-16 -80q-10 -51 20.5 -83t112.5 -32q152 0 322 70l49 -232q-179 -108 -440 -108q-230 0 -327 111.5t-58 310.5zM537 690h272l8 37q13 80 -10 122t-94 42q-141 0 -170 -164zM561 1653 h330l33 -391h-215z" />
<glyph unicode="&#xe9;" horiz-adv-x="1044" d="M152 406l57 301q41 214 177 331t364 117q225 0 318.5 -116t51.5 -332l-49 -258h-582l-16 -80q-10 -51 20.5 -83t112.5 -32q152 0 322 70l49 -232q-179 -108 -440 -108q-230 0 -327 111.5t-58 310.5zM537 690h272l8 37q13 80 -10 122t-94 42q-141 0 -170 -164zM635 1262 l184 391h330l-289 -391h-225z" />
<glyph unicode="&#xea;" horiz-adv-x="1044" d="M152 406l57 301q41 214 177 331t364 117q225 0 318.5 -116t51.5 -332l-49 -258h-582l-16 -80q-10 -51 20.5 -83t112.5 -32q152 0 322 70l49 -232q-179 -108 -440 -108q-230 0 -327 111.5t-58 310.5zM422 1262l323 391h220l172 -391h-199l-121 163l-180 -163h-215z M537 690h272l8 37q13 80 -10 122t-94 42q-141 0 -170 -164z" />
<glyph unicode="&#xeb;" horiz-adv-x="1044" d="M152 406l57 301q41 214 177 331t364 117q225 0 318.5 -116t51.5 -332l-49 -258h-582l-16 -80q-10 -51 20.5 -83t112.5 -32q152 0 322 70l49 -232q-179 -108 -440 -108q-230 0 -327 111.5t-58 310.5zM440 1268l56 280h274l-55 -280h-275zM537 690h272l8 37q13 80 -10 122 t-94 42q-141 0 -170 -164zM846 1268l55 280h275l-56 -280h-274z" />
<glyph unicode="&#xec;" horiz-adv-x="757" d="M203 877l53 262h502l-154 -791q-16 -96 70 -96q26 0 61 12l35 -213q-35 -27 -103 -47t-126 -20q-167 0 -233 84t-29 282l100 527h-176zM387 1653h330l33 -391h-215z" />
<glyph unicode="&#xed;" horiz-adv-x="757" d="M203 877l53 262h502l-154 -791q-16 -96 70 -96q26 0 61 12l35 -213q-35 -27 -103 -47t-126 -20q-167 0 -233 84t-29 282l100 527h-176zM496 1262l184 391h330l-289 -391h-225z" />
<glyph unicode="&#xee;" horiz-adv-x="757" d="M182 1262l324 391h219l172 -391h-199l-120 163l-181 -163h-215zM203 877l53 262h502l-154 -791q-16 -96 70 -96q26 0 61 12l35 -213q-35 -27 -103 -47t-126 -20q-167 0 -233 84t-29 282l100 527h-176z" />
<glyph unicode="&#xef;" horiz-adv-x="757" d="M203 877l53 262h502l-154 -791q-16 -96 70 -96q26 0 61 12l35 -213q-35 -27 -103 -47t-126 -20q-167 0 -233 84t-29 282l100 527h-176zM207 1268l55 280h275l-56 -280h-274zM612 1268l56 280h274l-55 -280h-275z" />
<glyph unicode="&#xf0;" horiz-adv-x="1118" d="M158 432l16 92q40 223 171 333t372 110q101 0 186 -29q23 113 6 164l-112 -86l-107 143l80 60q-24 4 -59 4q-91 0 -197 -41l-20 209q66 30 150 48.5t149 18.5q125 0 211 -45l157 129l115 -145l-127 -107q47 -78 56 -175t-17 -232l-88 -451q-42 -217 -176 -332.5 t-381 -115.5q-233 0 -328 117t-57 331zM489 446q-19 -93 5 -135.5t104 -42.5q81 0 122 42.5t56 135.5l10 62q18 96 -4.5 135t-103.5 39q-80 0 -118.5 -39t-57.5 -135z" />
<glyph unicode="&#xf1;" horiz-adv-x="1157" d="M113 0l221 1139h268l8 -101q147 117 322 117q90 0 152 -31t91 -86t36.5 -129t-11.5 -161l-145 -748h-328l133 680q17 88 -7.5 126t-86.5 38q-79 0 -174 -68l-152 -776h-327zM475 1321q135 252 295 252q48 0 94 -24.5t86 -49t72 -24.5q58 0 117 92l145 -72 q-81 -141 -148 -196.5t-147 -55.5q-48 0 -93.5 24.5t-85.5 49t-73 24.5q-58 0 -110 -94z" />
<glyph unicode="&#xf2;" horiz-adv-x="1085" d="M156 432l53 266q89 457 547 457q234 0 335.5 -121.5t59.5 -335.5l-53 -266q-89 -448 -545 -448q-235 0 -337 119t-60 329zM487 446q-17 -91 9.5 -134.5t99.5 -43.5q75 0 117 43t61 135l47 244q19 93 -7.5 136.5t-100.5 43.5q-75 0 -117 -43t-61 -137zM573 1653h330 l33 -391h-215z" />
<glyph unicode="&#xf3;" horiz-adv-x="1085" d="M156 432l53 266q89 457 547 457q234 0 335.5 -121.5t59.5 -335.5l-53 -266q-89 -448 -545 -448q-235 0 -337 119t-60 329zM487 446q-17 -91 9.5 -134.5t99.5 -43.5q75 0 117 43t61 135l47 244q19 93 -7.5 136.5t-100.5 43.5q-75 0 -117 -43t-61 -137zM629 1262l184 391 h330l-289 -391h-225z" />
<glyph unicode="&#xf4;" horiz-adv-x="1085" d="M156 432l53 266q89 457 547 457q234 0 335.5 -121.5t59.5 -335.5l-53 -266q-89 -448 -545 -448q-235 0 -337 119t-60 329zM434 1262l324 391h219l172 -391h-199l-121 163l-180 -163h-215zM487 446q-17 -91 9.5 -134.5t99.5 -43.5q75 0 117 43t61 135l47 244 q19 93 -7.5 136.5t-100.5 43.5q-75 0 -117 -43t-61 -137z" />
<glyph unicode="&#xf5;" horiz-adv-x="1085" d="M156 432l53 266q89 457 547 457q234 0 335.5 -121.5t59.5 -335.5l-53 -266q-89 -448 -545 -448q-235 0 -337 119t-60 329zM418 1321q135 252 295 252q48 0 94 -24.5t86 -49t72 -24.5q57 0 116 92l146 -72q-81 -141 -148 -196.5t-147 -55.5q-48 0 -93.5 24.5t-85.5 49 t-73 24.5q-59 0 -111 -94zM487 446q-17 -91 9.5 -134.5t99.5 -43.5q75 0 117 43t61 135l47 244q19 93 -7.5 136.5t-100.5 43.5q-75 0 -117 -43t-61 -137z" />
<glyph unicode="&#xf6;" horiz-adv-x="1085" d="M156 432l53 266q89 457 547 457q234 0 335.5 -121.5t59.5 -335.5l-53 -266q-89 -448 -545 -448q-235 0 -337 119t-60 329zM455 1268l55 280h274l-55 -280h-274zM487 446q-17 -91 9.5 -134.5t99.5 -43.5q75 0 117 43t61 135l47 244q19 93 -7.5 136.5t-100.5 43.5 q-75 0 -117 -43t-61 -137zM860 1268l55 280h275l-55 -280h-275z" />
<glyph unicode="&#xf7;" horiz-adv-x="1046" d="M125 469l51 266h981l-51 -266h-981zM381 182q0 41 10.5 77t34 69.5t69 53t107.5 19.5q80 0 116 -37t36 -98q0 -42 -9.5 -76.5t-32 -67.5t-68.5 -52t-112 -19q-151 0 -151 131zM528 934q0 41 10.5 77t34.5 69.5t69 53t106 19.5q81 0 117 -37t36 -98q0 -42 -9.5 -76.5 t-32 -67.5t-68.5 -52t-111 -19q-152 0 -152 131z" />
<glyph unicode="&#xf8;" horiz-adv-x="1085" d="M156 432l53 266q89 457 547 457q81 0 141 -14l53 92h180l-90 -154q79 -57 107.5 -154.5t3.5 -226.5l-53 -266q-89 -448 -545 -448q-68 0 -147 14l-48 -82h-180l84 143q-159 117 -106 373zM485 440l252 428q-8 2 -24 2q-75 0 -117 -43t-61 -137l-48 -244q0 -1 -1 -3t-1 -3 zM565 270q10 -2 31 -2q75 0 117 43t61 135l47 244l2 21z" />
<glyph unicode="&#xf9;" horiz-adv-x="1146" d="M178 391l146 748h327l-133 -680q-17 -88 7.5 -126t86.5 -38q80 0 174 67l152 777h328l-222 -1139h-268l-8 100q-146 -116 -317 -116q-176 0 -242.5 112t-30.5 295zM614 1653h330l33 -391h-215z" />
<glyph unicode="&#xfa;" horiz-adv-x="1146" d="M178 391l146 748h327l-133 -680q-17 -88 7.5 -126t86.5 -38q80 0 174 67l152 777h328l-222 -1139h-268l-8 100q-146 -116 -317 -116q-176 0 -242.5 112t-30.5 295zM690 1262l184 391h330l-289 -391h-225z" />
<glyph unicode="&#xfb;" horiz-adv-x="1146" d="M178 391l146 748h327l-133 -680q-17 -88 7.5 -126t86.5 -38q80 0 174 67l152 777h328l-222 -1139h-268l-8 100q-146 -116 -317 -116q-176 0 -242.5 112t-30.5 295zM467 1262l324 391h219l172 -391h-199l-121 163l-180 -163h-215z" />
<glyph unicode="&#xfc;" horiz-adv-x="1146" d="M178 391l146 748h327l-133 -680q-17 -88 7.5 -126t86.5 -38q80 0 174 67l152 777h328l-222 -1139h-268l-8 100q-146 -116 -317 -116q-176 0 -242.5 112t-30.5 295zM487 1268l56 280h274l-55 -280h-275zM893 1268l55 280h275l-56 -280h-274z" />
<glyph unicode="&#xfd;" horiz-adv-x="1146" d="M76 -328l131 238q88 -37 151.5 -49.5t141.5 -12.5q94 0 150 42.5t69 109.5l14 70q-130 -86 -282 -86q-176 0 -242.5 112t-30.5 295l146 748h327l-133 -680q-17 -88 7.5 -126t86.5 -38q80 0 174 67l152 777h328l-213 -1092q-43 -221 -184.5 -349t-374.5 -128 q-118 0 -236 27t-182 75zM694 1262l185 391h329l-288 -391h-226z" />
<glyph unicode="&#xfe;" horiz-adv-x="1124" d="M33 -414l379 1950h327l-90 -467q54 40 121.5 63t130.5 23q185 0 257.5 -121.5t31.5 -328.5l-53 -273q-88 -448 -435 -448q-71 0 -141 29t-104 71l-97 -498h-327zM512 367q51 -74 131 -74q72 0 114.5 44.5t59.5 135.5l37 193q37 180 -102 180q-79 0 -162 -76z" />
<glyph unicode="&#xff;" horiz-adv-x="1146" d="M76 -328l131 238q88 -37 151.5 -49.5t141.5 -12.5q94 0 150 42.5t69 109.5l14 70q-130 -86 -282 -86q-176 0 -242.5 112t-30.5 295l146 748h327l-133 -680q-17 -88 7.5 -126t86.5 -38q80 0 174 67l152 777h328l-213 -1092q-43 -221 -184.5 -349t-374.5 -128 q-118 0 -236 27t-182 75zM467 1268l55 280h275l-56 -280h-274zM872 1268l56 280h274l-55 -280h-275z" />
<glyph unicode="&#x100;" horiz-adv-x="1269" d="M18 0l734 1434h323l176 -1434h-356l-27 281h-352l-133 -281h-365zM633 573h223l-25 416h-8zM643 1593l47 238h608l-47 -238h-608z" />
<glyph unicode="&#x101;" horiz-adv-x="1214" d="M158 434l51 273q40 212 159.5 330t299.5 118q87 0 144.5 -32.5t82.5 -84.5l72 101h268l-154 -791q-16 -96 70 -96q30 0 61 8v-215q-87 -61 -204 -61q-169 0 -215 120q-73 -59 -148.5 -89.5t-183.5 -30.5q-188 0 -265.5 118.5t-37.5 331.5zM492 473q-19 -92 6.5 -136 t97.5 -44q81 0 160 76l80 403q-51 74 -131 74q-71 0 -113.5 -44t-61.5 -136zM526 1298l47 238h609l-47 -238h-609z" />
<glyph unicode="&#x102;" horiz-adv-x="1269" d="M18 0l734 1434h323l176 -1434h-356l-27 281h-352l-133 -281h-365zM633 573h223l-25 416h-8zM651 1708.5q-16 63.5 0 149.5l6 32h265l-7 -37q-17 -98 58 -98q77 0 94 98l6 37h277l-7 -32q-32 -167 -138.5 -243.5t-260.5 -76.5q-74 0 -132.5 17.5t-101.5 53.5t-59 99.5z " />
<glyph unicode="&#x103;" horiz-adv-x="1214" d="M158 434l51 273q40 212 159.5 330t299.5 118q87 0 144.5 -32.5t82.5 -84.5l72 101h268l-154 -791q-16 -96 70 -96q30 0 61 8v-215q-87 -61 -204 -61q-169 0 -215 120q-73 -59 -148.5 -89.5t-183.5 -30.5q-188 0 -265.5 118.5t-37.5 331.5zM492 473q-19 -92 6.5 -136 t97.5 -44q81 0 160 76l80 403q-51 74 -131 74q-71 0 -113.5 -44t-61.5 -136zM528 1413.5q-16 63.5 0 149.5l7 32h264l-6 -36q-17 -99 57 -99q77 0 94 99l6 36h277l-6 -32q-32 -167 -139 -243.5t-261 -76.5q-74 0 -132.5 17.5t-101.5 53.5t-59 99.5z" />
<glyph unicode="&#x104;" horiz-adv-x="1269" d="M18 0l734 1434h323l176 -1434q-111 -33 -178 -82.5t-67 -112.5q0 -28 18.5 -43.5t50.5 -15.5q18 0 38.5 4t32.5 8l11 4l14 -174q-41 -26 -104.5 -42.5t-128.5 -16.5q-94 0 -153.5 45t-59.5 129q0 99 85 177t218 120h-133l-27 281h-352l-133 -281h-365zM633 573h223 l-25 416h-8z" />
<glyph unicode="&#x105;" horiz-adv-x="1214" d="M158 434l51 273q40 212 159.5 330t299.5 118q87 0 144.5 -32.5t82.5 -84.5l72 101h268l-154 -791q-16 -96 70 -96q30 0 61 8v-215q-17 -10 -64.5 -29t-91.5 -39t-89.5 -45.5t-73 -58.5t-27.5 -68q0 -28 19 -43.5t51 -15.5q18 0 38.5 4t31.5 8l12 4l14 -174 q-41 -26 -104.5 -42.5t-128.5 -16.5q-94 0 -153.5 45t-59.5 129q0 99 85 177t218 120h8q-75 26 -104 104q-73 -59 -148.5 -89.5t-183.5 -30.5q-188 0 -265.5 118.5t-37.5 331.5zM492 473q-19 -92 6.5 -136t97.5 -44q81 0 160 76l80 403q-51 74 -131 74q-71 0 -113.5 -44 t-61.5 -136z" />
<glyph unicode="&#x106;" horiz-adv-x="1165" d="M182 510l80 414q47 244 213 385t434 141q102 0 179.5 -23.5t128 -68.5t82 -99t51.5 -126l-297 -134q-34 148 -189 148q-110 0 -175 -67t-87 -175l-72 -377q-12 -50 -7.5 -94t22 -76.5t56 -51.5t95.5 -19q158 0 252 149l250 -137q-45 -72 -95.5 -126t-118.5 -98.5 t-157 -67.5t-198 -23q-268 0 -381 141.5t-66 384.5zM778 1569l185 391h329l-288 -391h-226z" />
<glyph unicode="&#x107;" horiz-adv-x="995" d="M158 440l49 258q41 218 176.5 337.5t372.5 119.5q155 0 252 -67.5t135 -180.5l-262 -164q-40 127 -162 127q-72 0 -120.5 -45.5t-63.5 -122.5l-52 -266q-15 -76 16 -122t103 -46q55 0 105.5 27.5t111.5 99.5l213 -159q-101 -123 -212.5 -187.5t-264.5 -64.5 q-233 0 -336 122t-61 334zM635 1262l184 391h330l-289 -391h-225z" />
<glyph unicode="&#x108;" horiz-adv-x="1165" d="M182 510l80 414q47 244 213 385t434 141q102 0 179.5 -23.5t128 -68.5t82 -99t51.5 -126l-297 -134q-34 148 -189 148q-110 0 -175 -67t-87 -175l-72 -377q-12 -50 -7.5 -94t22 -76.5t56 -51.5t95.5 -19q158 0 252 149l250 -137q-45 -72 -95.5 -126t-118.5 -98.5 t-157 -67.5t-198 -23q-268 0 -381 141.5t-66 384.5zM586 1569l323 391h219l172 -391h-198l-121 164l-180 -164h-215z" />
<glyph unicode="&#x109;" horiz-adv-x="995" d="M158 440l49 258q41 218 176.5 337.5t372.5 119.5q155 0 252 -67.5t135 -180.5l-262 -164q-40 127 -162 127q-72 0 -120.5 -45.5t-63.5 -122.5l-52 -266q-15 -76 16 -122t103 -46q55 0 105.5 27.5t111.5 99.5l213 -159q-101 -123 -212.5 -187.5t-264.5 -64.5 q-233 0 -336 122t-61 334zM434 1262l324 391h219l172 -391h-199l-121 163l-180 -163h-215z" />
<glyph unicode="&#x10a;" horiz-adv-x="1165" d="M182 510l80 414q47 244 213 385t434 141q102 0 179.5 -23.5t128 -68.5t82 -99t51.5 -126l-297 -134q-34 148 -189 148q-110 0 -175 -67t-87 -175l-72 -377q-12 -50 -7.5 -94t22 -76.5t56 -51.5t95.5 -19q158 0 252 149l250 -137q-45 -72 -95.5 -126t-118.5 -98.5 t-157 -67.5t-198 -23q-268 0 -381 141.5t-66 384.5zM776 1550l64 322h336l-64 -322h-336z" />
<glyph unicode="&#x10b;" horiz-adv-x="995" d="M158 440l49 258q41 218 176.5 337.5t372.5 119.5q155 0 252 -67.5t135 -180.5l-262 -164q-40 127 -162 127q-72 0 -120.5 -45.5t-63.5 -122.5l-52 -266q-15 -76 16 -122t103 -46q55 0 105.5 27.5t111.5 99.5l213 -159q-101 -123 -212.5 -187.5t-264.5 -64.5 q-233 0 -336 122t-61 334zM629 1255l63 322h336l-63 -322h-336z" />
<glyph unicode="&#x10c;" horiz-adv-x="1165" d="M182 510l80 414q47 244 213 385t434 141q102 0 179.5 -23.5t128 -68.5t82 -99t51.5 -126l-297 -134q-34 148 -189 148q-110 0 -175 -67t-87 -175l-72 -377q-12 -50 -7.5 -94t22 -76.5t56 -51.5t95.5 -19q158 0 252 149l250 -137q-45 -72 -95.5 -126t-118.5 -98.5 t-157 -67.5t-198 -23q-268 0 -381 141.5t-66 384.5zM662 1960h200l115 -164l180 164h219l-323 -391h-219z" />
<glyph unicode="&#x10d;" horiz-adv-x="995" d="M158 440l49 258q41 218 176.5 337.5t372.5 119.5q155 0 252 -67.5t135 -180.5l-262 -164q-40 127 -162 127q-72 0 -120.5 -45.5t-63.5 -122.5l-52 -266q-15 -76 16 -122t103 -46q55 0 105.5 27.5t111.5 99.5l213 -159q-101 -123 -212.5 -187.5t-264.5 -64.5 q-233 0 -336 122t-61 334zM506 1653h201l114 -164l180 164h220l-324 -391h-219z" />
<glyph unicode="&#x10e;" horiz-adv-x="1320" d="M131 0l279 1434h508q232 0 358.5 -133t126.5 -386q0 -208 -56.5 -381.5t-154 -289.5t-229 -180t-281.5 -64h-551zM526 291h144q172 0 276.5 151.5t104.5 417.5q0 58 -11 106t-35 89t-67.5 64.5t-103.5 23.5h-144zM645 1960h201l115 -164l180 164h219l-324 -391h-219z" />
<glyph unicode="&#x10f;" horiz-adv-x="1339" d="M158 434l51 273q40 214 155.5 331t294.5 117q70 0 133.5 -28.5t98.5 -71.5l92 481h328l-232 -1188q-19 -96 72 -96q30 0 61 8v-215q-87 -61 -204 -61q-169 0 -215 120q-141 -120 -328 -120q-189 0 -268 118.5t-39 331.5zM492 473q-19 -92 6.5 -136t97.5 -44q81 0 160 76 l80 403q-51 74 -131 74q-71 0 -113.5 -44t-61.5 -136zM1284 1092l125 444h322l-224 -444h-223z" />
<glyph unicode="&#x110;" horiz-adv-x="1343" d="M154 0l114 590h-112l53 278h113l110 566h508q232 0 358.5 -133t126.5 -386q0 -208 -56 -381.5t-153.5 -289.5t-229 -180t-281.5 -64h-551zM549 291h143q172 0 276.5 151.5t104.5 417.5q0 58 -11 106t-35 89t-67.5 64.5t-103.5 23.5h-143l-54 -275h236l-53 -278h-236z" />
<glyph unicode="&#x111;" horiz-adv-x="1212" d="M158 434l51 273q40 214 155.5 331t294.5 117q70 0 133.5 -28.5t98.5 -71.5l29 157h-215l43 218h215l20 106h328l-21 -106h137l-43 -218h-137l-168 -864q-19 -96 72 -96q30 0 61 8v-215q-87 -61 -204 -61q-169 0 -215 120q-141 -120 -328 -120q-189 0 -268 118.5 t-39 331.5zM492 473q-19 -92 6.5 -136t97.5 -44q81 0 160 76l80 403q-51 74 -131 74q-71 0 -113.5 -44t-61.5 -136z" />
<glyph unicode="&#x112;" horiz-adv-x="1120" d="M131 0l279 1434h878l-57 -291h-539l-51 -266h492l-56 -291h-491l-58 -295h539l-57 -291h-879zM586 1593l47 238h608l-47 -238h-608z" />
<glyph unicode="&#x113;" horiz-adv-x="1044" d="M152 406l57 301q41 214 177 331t364 117q225 0 318.5 -116t51.5 -332l-49 -258h-582l-16 -80q-10 -51 20.5 -83t112.5 -32q152 0 322 70l49 -232q-179 -108 -440 -108q-230 0 -327 111.5t-58 310.5zM483 1298l47 238h609l-47 -238h-609zM537 690h272l8 37q13 80 -10 122 t-94 42q-141 0 -170 -164z" />
<glyph unicode="&#x114;" horiz-adv-x="1120" d="M131 0l279 1434h878l-57 -291h-539l-51 -266h492l-56 -291h-491l-58 -295h539l-57 -291h-879zM598 1708.5q-16 63.5 0 149.5l6 32h264l-6 -37q-17 -98 58 -98q77 0 94 98l6 37h276l-6 -32q-32 -167 -138.5 -243.5t-260.5 -76.5q-74 0 -132.5 17.5t-101.5 53.5t-59 99.5z " />
<glyph unicode="&#x115;" horiz-adv-x="1044" d="M152 406l57 301q41 214 177 331t364 117q225 0 318.5 -116t51.5 -332l-49 -258h-582l-16 -80q-10 -51 20.5 -83t112.5 -32q152 0 322 70l49 -232q-179 -108 -440 -108q-230 0 -327 111.5t-58 310.5zM494 1413q-14 61 0 150l6 32h264l-6 -36q-17 -99 57 -99q77 0 94 99 l6 36h277l-6 -32q-32 -167 -139 -243.5t-261 -76.5q-74 0 -132 17t-102 54.5t-58 98.5zM537 690h272l8 37q13 80 -10 122t-94 42q-141 0 -170 -164z" />
<glyph unicode="&#x116;" horiz-adv-x="1120" d="M131 0l279 1434h878l-57 -291h-539l-51 -266h492l-56 -291h-491l-58 -295h539l-57 -291h-879zM719 1550l63 322h336l-63 -322h-336z" />
<glyph unicode="&#x117;" horiz-adv-x="1044" d="M152 406l57 301q41 214 177 331t364 117q225 0 318.5 -116t51.5 -332l-49 -258h-582l-16 -80q-10 -51 20.5 -83t112.5 -32q152 0 322 70l49 -232q-179 -108 -440 -108q-230 0 -327 111.5t-58 310.5zM537 690h272l8 37q13 80 -10 122t-94 42q-141 0 -170 -164zM618 1255 l64 322h336l-64 -322h-336z" />
<glyph unicode="&#x118;" horiz-adv-x="1120" d="M131 0l279 1434h878l-57 -291h-539l-51 -266h492l-56 -291h-491l-58 -295h539l-57 -291q-112 -33 -179 -82.5t-67 -112.5q0 -28 19 -43.5t51 -15.5q18 0 38.5 4t31.5 8l11 4l15 -174q-94 -59 -234 -59q-95 0 -154 41t-59 125q0 100 86 181.5t217 123.5h-655z" />
<glyph unicode="&#x119;" horiz-adv-x="1044" d="M152 406l57 301q41 214 177 331t364 117q225 0 318.5 -116t51.5 -332l-49 -258h-582l-16 -80q-10 -51 20.5 -83t112.5 -32q152 0 322 70l49 -232q-279 -166 -279 -287q0 -28 19 -43.5t51 -15.5q18 0 39 4t33 8l12 4l12 -174q-95 -59 -233 -59q-94 0 -153.5 41.5 t-59.5 124.5q0 170 227 295q-53 -6 -108 -6q-230 0 -327 111.5t-58 310.5zM537 690h272l8 37q13 80 -10 122t-94 42q-141 0 -170 -164z" />
<glyph unicode="&#x11a;" horiz-adv-x="1120" d="M131 0l279 1434h878l-57 -291h-539l-51 -266h492l-56 -291h-491l-58 -295h539l-57 -291h-879zM582 1960h200l115 -164l180 164h219l-323 -391h-219z" />
<glyph unicode="&#x11b;" horiz-adv-x="1044" d="M152 406l57 301q41 214 177 331t364 117q225 0 318.5 -116t51.5 -332l-49 -258h-582l-16 -80q-10 -51 20.5 -83t112.5 -32q152 0 322 70l49 -232q-179 -108 -440 -108q-230 0 -327 111.5t-58 310.5zM498 1653h200l115 -164l180 164h219l-323 -391h-219zM537 690h272l8 37 q13 80 -10 122t-94 42q-141 0 -170 -164z" />
<glyph unicode="&#x11c;" d="M184 512l80 412q47 243 215 384.5t436 141.5q102 0 179.5 -23.5t128 -68.5t82 -99t51.5 -126l-297 -134q-34 148 -191 148q-105 0 -173.5 -68t-90.5 -174l-72 -375q-22 -109 16 -177t148 -68q134 0 222 92l36 182h-247l53 272h557l-115 -589q-115 -120 -253.5 -189 t-321.5 -69q-268 0 -379 142t-64 386zM582 1569l323 391h219l172 -391h-198l-121 164l-180 -164h-215z" />
<glyph unicode="&#x11d;" horiz-adv-x="1114" d="M45 -328l131 238q88 -37 151.5 -49.5t141.5 -12.5q93 0 147.5 42.5t67.5 109.5l23 115q-52 -43 -126.5 -72t-144.5 -29q-179 0 -247.5 117.5t-26.5 331.5l47 242q42 215 160 332.5t305 117.5q76 0 145 -33.5t101 -87.5l47 105h268l-213 -1092q-43 -221 -184.5 -349 t-374.5 -128q-118 0 -236 27t-182 75zM444 1262l324 391h219l172 -391h-198l-121 163l-181 -163h-215zM498 504q-17 -92 8 -136t96 -44q84 0 160 73l72 373q-52 76 -132 76q-72 0 -113.5 -43.5t-60.5 -136.5z" />
<glyph unicode="&#x11e;" d="M184 512l80 412q47 243 215 384.5t436 141.5q102 0 179.5 -23.5t128 -68.5t82 -99t51.5 -126l-297 -134q-34 148 -191 148q-105 0 -173.5 -68t-90.5 -174l-72 -375q-22 -109 16 -177t148 -68q134 0 222 92l36 182h-247l53 272h557l-115 -589q-115 -120 -253.5 -189 t-321.5 -69q-268 0 -379 142t-64 386zM651 1708.5q-16 63.5 0 149.5l6 32h265l-7 -37q-17 -98 58 -98q77 0 94 98l6 37h277l-7 -32q-32 -167 -138.5 -243.5t-260.5 -76.5q-74 0 -132.5 17.5t-101.5 53.5t-59 99.5z" />
<glyph unicode="&#x11f;" horiz-adv-x="1114" d="M45 -328l131 238q88 -37 151.5 -49.5t141.5 -12.5q93 0 147.5 42.5t67.5 109.5l23 115q-52 -43 -126.5 -72t-144.5 -29q-179 0 -247.5 117.5t-26.5 331.5l47 242q42 215 160 332.5t305 117.5q76 0 145 -33.5t101 -87.5l47 105h268l-213 -1092q-43 -221 -184.5 -349 t-374.5 -128q-118 0 -236 27t-182 75zM498 504q-17 -92 8 -136t96 -44q84 0 160 73l72 373q-52 76 -132 76q-72 0 -113.5 -43.5t-60.5 -136.5zM522 1413.5q-16 63.5 0 149.5l6 32h265l-7 -36q-17 -99 58 -99q77 0 94 99l6 36h277l-7 -32q-32 -167 -138.5 -243.5 t-260.5 -76.5q-74 0 -132.5 17.5t-101.5 53.5t-59 99.5z" />
<glyph unicode="&#x120;" d="M184 512l80 412q47 243 215 384.5t436 141.5q102 0 179.5 -23.5t128 -68.5t82 -99t51.5 -126l-297 -134q-34 148 -191 148q-105 0 -173.5 -68t-90.5 -174l-72 -375q-22 -109 16 -177t148 -68q134 0 222 92l36 182h-247l53 272h557l-115 -589q-115 -120 -253.5 -189 t-321.5 -69q-268 0 -379 142t-64 386zM778 1550l64 322h336l-64 -322h-336z" />
<glyph unicode="&#x121;" horiz-adv-x="1114" d="M45 -328l131 238q88 -37 151.5 -49.5t141.5 -12.5q93 0 147.5 42.5t67.5 109.5l23 115q-52 -43 -126.5 -72t-144.5 -29q-179 0 -247.5 117.5t-26.5 331.5l47 242q42 215 160 332.5t305 117.5q76 0 145 -33.5t101 -87.5l47 105h268l-213 -1092q-43 -221 -184.5 -349 t-374.5 -128q-118 0 -236 27t-182 75zM498 504q-17 -92 8 -136t96 -44q84 0 160 73l72 373q-52 76 -132 76q-72 0 -113.5 -43.5t-60.5 -136.5zM645 1255l64 322h335l-63 -322h-336z" />
<glyph unicode="&#x122;" d="M184 512l80 412q47 243 215 384.5t436 141.5q102 0 179.5 -23.5t128 -68.5t82 -99t51.5 -126l-297 -134q-34 148 -191 148q-105 0 -173.5 -68t-90.5 -174l-72 -375q-22 -109 16 -177t148 -68q134 0 222 92l36 182h-247l53 272h557l-115 -589q-115 -120 -253.5 -189 t-321.5 -69q-268 0 -379 142t-64 386zM352 -557q58 32 97.5 74.5t50.5 79.5h-107l58 303h303l-43 -226q-8 -43 -23 -84.5t-44 -94.5t-80.5 -100t-119.5 -79z" />
<glyph unicode="&#x123;" horiz-adv-x="1114" d="M45 -328l131 238q88 -37 151.5 -49.5t141.5 -12.5q93 0 147.5 42.5t67.5 109.5l23 115q-52 -43 -126.5 -72t-144.5 -29q-179 0 -247.5 117.5t-26.5 331.5l47 242q42 215 160 332.5t305 117.5q76 0 145 -33.5t101 -87.5l47 105h268l-213 -1092q-43 -221 -184.5 -349 t-374.5 -128q-118 0 -236 27t-182 75zM498 504q-17 -92 8 -136t96 -44q84 0 160 73l72 373q-52 76 -132 76q-72 0 -113.5 -43.5t-60.5 -136.5zM621 1262l43 225q8 43 23 84.5t43.5 94.5t80 100t119.5 79l92 -127q-58 -32 -97.5 -74.5t-50.5 -78.5h107l-57 -303h-303z" />
<glyph unicode="&#x124;" horiz-adv-x="1343" d="M131 0l279 1434h340l-107 -553h401l107 553h340l-279 -1434h-340l115 588h-401l-115 -588h-340zM625 1569l323 391h219l172 -391h-198l-121 164l-180 -164h-215z" />
<glyph unicode="&#x125;" horiz-adv-x="1165" d="M113 0l299 1536h327l-92 -471q137 90 299 90q72 0 126 -20.5t85.5 -57.5t48.5 -88t15.5 -111.5t-13.5 -129.5l-145 -748h-328l133 680q17 87 -9 125.5t-89 38.5q-83 0 -178 -68l-152 -776h-327zM233 1638l324 392h219l172 -392h-198l-121 164l-180 -164h-216z" />
<glyph unicode="&#x126;" horiz-adv-x="1343" d="M131 0l201 1030h-113l45 238h113l33 166h340l-33 -166h401l33 166h340l-33 -166h113l-45 -238h-113l-201 -1030h-340l115 588h-401l-115 -588h-340zM643 881h401l29 149h-401z" />
<glyph unicode="&#x127;" horiz-adv-x="1165" d="M113 0l233 1202h-133l43 223h133l23 111h327l-22 -111h221l-43 -223h-221l-27 -137q137 90 299 90q175 0 236.5 -111t25.5 -296l-145 -748h-328l133 680q17 87 -9 125.5t-89 38.5q-83 0 -178 -68l-152 -776h-327z" />
<glyph unicode="&#x128;" horiz-adv-x="602" d="M131 0l279 1434h340l-279 -1434h-340zM240 1628q135 252 295 252q38 0 75.5 -15.5t62.5 -33.5t56 -33.5t57 -15.5q58 0 117 92l146 -72q-81 -141 -148 -196.5t-147 -55.5q-38 0 -75.5 15.5t-62.5 34t-56 34t-58 15.5q-58 0 -111 -95z" />
<glyph unicode="&#x129;" horiz-adv-x="757" d="M172 1321q135 252 295 252q48 0 94 -24.5t86 -49t72 -24.5q58 0 117 92l145 -72q-81 -141 -148 -196.5t-147 -55.5q-48 0 -93.5 24.5t-85.5 49t-73 24.5q-58 0 -110 -94zM203 877l53 262h502l-154 -791q-16 -96 70 -96q26 0 61 12l35 -213q-35 -27 -103 -47t-126 -20 q-167 0 -233 84t-29 282l100 527h-176z" />
<glyph unicode="&#x12a;" horiz-adv-x="602" d="M131 0l279 1434h340l-279 -1434h-340zM307 1593l47 238h609l-48 -238h-608z" />
<glyph unicode="&#x12b;" horiz-adv-x="757" d="M203 877l53 262h502l-154 -791q-16 -96 70 -96q26 0 61 12l35 -213q-35 -27 -103 -47t-126 -20q-167 0 -233 84t-29 282l100 527h-176zM242 1298l47 238h608l-47 -238h-608z" />
<glyph unicode="&#x12c;" horiz-adv-x="602" d="M131 0l279 1434h340l-279 -1434h-340zM313 1708.5q-16 63.5 0 149.5l6 32h265l-6 -37q-9 -51 5 -74.5t52 -23.5q77 0 94 98l6 37h277l-6 -32q-32 -167 -139 -243.5t-261 -76.5q-74 0 -132.5 17.5t-101.5 53.5t-59 99.5z" />
<glyph unicode="&#x12d;" horiz-adv-x="552" d="M203 877l53 262h502l-154 -791q-16 -96 70 -96q26 0 61 12l35 -213q-35 -27 -103 -47t-126 -20q-167 0 -233 84t-29 282l100 527h-176zM276 1413.5q-16 63.5 0 149.5l7 32h264l-6 -36q-17 -99 57 -99q77 0 94 99l6 36h277l-6 -32q-32 -167 -139 -243.5t-261 -76.5 q-74 0 -132.5 17.5t-101.5 53.5t-59 99.5z" />
<glyph unicode="&#x12e;" horiz-adv-x="602" d="M-109 -297q0 99 85.5 176.5t218.5 120.5h-64l279 1434h340l-279 -1434h-53q-112 -33 -179 -82.5t-67 -112.5q0 -28 19 -43.5t51 -15.5q18 0 38.5 4t31.5 8l12 4l14 -174q-41 -26 -105 -42.5t-129 -16.5q-94 0 -153.5 45t-59.5 129z" />
<glyph unicode="&#x12f;" horiz-adv-x="757" d="M125 -297q0 98 82.5 174.5t212.5 120.5q-99 25 -135 109.5t-6 242.5l100 527h-176l53 262h502l-154 -791q-16 -96 70 -96q26 0 61 12l35 -213q-20 -12 -69 -30t-96 -36.5t-94 -43.5t-76 -60t-29 -76q0 -28 18.5 -43.5t50.5 -15.5q18 0 38.5 4t32.5 8l11 4l14 -174 q-41 -26 -104.5 -42.5t-128.5 -16.5q-94 0 -153.5 45t-59.5 129zM449 1255l63 322h336l-64 -322h-335z" />
<glyph unicode="&#x130;" horiz-adv-x="602" d="M131 0l279 1434h340l-279 -1434h-340zM434 1550l64 322h336l-64 -322h-336z" />
<glyph unicode="&#x131;" horiz-adv-x="757" d="M203 877l53 262h502l-154 -791q-16 -96 70 -96q26 0 61 12l35 -213q-35 -27 -103 -47t-126 -20q-167 0 -233 84t-29 282l100 527h-176z" />
<glyph unicode="&#x132;" horiz-adv-x="1472" d="M131 0l279 1434h340l-279 -1434h-340zM647 25l72 276q98 -18 176 -18q95 0 135 51t64 168l184 932h342l-180 -928q-13 -68 -27 -120.5t-36.5 -109t-50.5 -98t-69.5 -79.5t-93 -62.5t-121 -38.5t-153.5 -14q-47 0 -118 11t-124 30z" />
<glyph unicode="&#x133;" horiz-adv-x="1398" d="M203 877l53 262h502l-154 -791q-16 -96 70 -96q26 0 61 12l35 -213q-35 -27 -103 -47t-126 -20q-167 0 -233 84t-29 282l100 527h-176zM449 1255l63 322h336l-64 -322h-335zM578 -358l124 241q65 -20 148 -20q44 0 73 25t38 71l178 918h-176l53 262h502l-228 -1166 q-18 -90 -50.5 -159.5t-85 -124t-132 -83t-182.5 -28.5q-159 0 -262 64zM1208 1255l64 322h336l-64 -322h-336z" />
<glyph unicode="&#x134;" horiz-adv-x="870" d="M45 25l72 276q98 -18 176 -18q95 0 135 51t64 168l184 932h342l-180 -928q-13 -68 -27 -120.5t-36.5 -109t-50.5 -98t-69.5 -79.5t-93 -62.5t-121 -38.5t-153.5 -14q-47 0 -118 11t-124 30zM516 1569l324 391h219l172 -391h-199l-121 164l-180 -164h-215z" />
<glyph unicode="&#x135;" horiz-adv-x="641" d="M-180 -358l125 241q65 -20 147 -20q44 0 73 25t38 71l178 918h-176l53 262h502l-228 -1166q-18 -90 -50.5 -159.5t-85 -124t-132 -83t-182.5 -28.5q-159 0 -262 64zM168 1262l324 391h219l172 -391h-199l-121 163l-180 -163h-215z" />
<glyph unicode="&#x136;" horiz-adv-x="1220" d="M131 0l279 1434h340l-105 -543h64l387 543h370l-510 -672l252 -762h-370l-187 596h-63l-117 -596h-340zM369 -557q58 32 97 74.5t50 79.5h-106l57 303h303l-43 -226q-8 -43 -23 -84.5t-43.5 -94.5t-80 -100t-119.5 -79z" />
<glyph unicode="&#x137;" horiz-adv-x="1060" d="M113 0l299 1536h327l-153 -791h59l252 394h371l-394 -537l89 -260q34 -100 116 -100q27 0 54 12l34 -193q-91 -77 -221 -77q-208 0 -282 254l-70 237h-62l-92 -475h-327zM340 -557q58 32 97 74.5t50 79.5h-106l57 303h303l-43 -226q-8 -43 -23 -84.5t-43.5 -94.5 t-80 -100t-119.5 -79z" />
<glyph unicode="&#x138;" horiz-adv-x="1060" d="M113 0l227 1139h328l-82 -394h59l252 394h371l-394 -537l89 -260q34 -100 116 -100q27 0 54 12l34 -193q-91 -77 -221 -77q-208 0 -282 254l-70 237h-62l-92 -475h-327z" />
<glyph unicode="&#x139;" horiz-adv-x="1064" d="M131 0l279 1434h340l-218 -1123h537l-61 -311h-877zM504 1556l184 392h330l-289 -392h-225z" />
<glyph unicode="&#x13a;" horiz-adv-x="661" d="M186 379l226 1157h327l-231 -1188q-16 -96 70 -96q26 0 61 12l35 -213q-35 -27 -103.5 -47t-126.5 -20q-175 0 -237 93t-21 302zM471 1612l184 391h330l-289 -391h-225z" />
<glyph unicode="&#x13b;" horiz-adv-x="1064" d="M131 0l279 1434h340l-218 -1123h537l-61 -311h-877zM274 -557q58 32 97.5 74.5t50.5 79.5h-107l58 303h303l-43 -226q-8 -43 -23 -84.5t-43.5 -94.5t-80 -100t-119.5 -79z" />
<glyph unicode="&#x13c;" horiz-adv-x="661" d="M98 -557q58 32 97.5 74.5t50.5 79.5h-107l58 303h303l-43 -226q-8 -43 -23 -84.5t-44 -94.5t-80.5 -100t-119.5 -79zM186 379l226 1157h327l-231 -1188q-16 -96 70 -96q26 0 61 12l35 -213q-35 -27 -103.5 -47t-126.5 -20q-175 0 -237 93t-21 302z" />
<glyph unicode="&#x13d;" horiz-adv-x="1064" d="M131 0l279 1434h340l-218 -1123h537l-61 -311h-877zM811 989l125 445h321l-223 -445h-223z" />
<glyph unicode="&#x13e;" horiz-adv-x="788" d="M186 379l226 1157h327l-231 -1188q-16 -96 70 -96q26 0 61 12l35 -213q-35 -27 -103.5 -47t-126.5 -20q-175 0 -237 93t-21 302zM723 1092l125 444h321l-223 -444h-223z" />
<glyph unicode="&#x13f;" horiz-adv-x="1064" d="M131 0l279 1434h340l-218 -1123h537l-61 -311h-877zM694 588l72 370h369l-72 -370h-369z" />
<glyph unicode="&#x140;" horiz-adv-x="962" d="M186 379l226 1157h327l-231 -1188q-16 -96 70 -96q26 0 61 12l35 -213q-35 -27 -103.5 -47t-126.5 -20q-175 0 -237 93t-21 302zM657 582l72 370h369l-72 -370h-369z" />
<glyph unicode="&#x141;" horiz-adv-x="1144" d="M172 477l57 295l142 55l118 607h340l-90 -459l334 133l-57 -295l-334 -133l-72 -369h537l-60 -311h-876l102 532z" />
<glyph unicode="&#x142;" horiz-adv-x="745" d="M49 502l57 297l177 71l129 666h327l-100 -518l205 86l-58 -297l-206 -86l-72 -373q-16 -96 70 -96q26 0 61 12l35 -213q-35 -27 -103.5 -47t-126.5 -20q-175 0 -237 93t-21 302l37 194z" />
<glyph unicode="&#x143;" horiz-adv-x="1363" d="M131 0l279 1434h305l334 -762h8l147 762h328l-279 -1434h-299l-333 786h-9l-153 -786h-328zM887 1569l184 391h330l-289 -391h-225z" />
<glyph unicode="&#x144;" horiz-adv-x="1157" d="M113 0l221 1139h268l8 -101q147 117 322 117q90 0 152 -31t91 -86t36.5 -129t-11.5 -161l-145 -748h-328l133 680q17 88 -7.5 126t-86.5 38q-79 0 -174 -68l-152 -776h-327zM694 1262l185 391h329l-288 -391h-226z" />
<glyph unicode="&#x145;" horiz-adv-x="1363" d="M131 0l279 1434h305l334 -762h8l147 762h328l-279 -1434h-299l-333 786h-9l-153 -786h-328zM442 -557q58 32 97.5 74.5t50.5 79.5h-107l58 303h303l-43 -226q-8 -43 -23 -84.5t-43.5 -94.5t-80 -100t-119.5 -79z" />
<glyph unicode="&#x146;" horiz-adv-x="1157" d="M113 0l221 1139h268l8 -101q147 117 322 117q90 0 152 -31t91 -86t36.5 -129t-11.5 -161l-145 -748h-328l133 680q17 88 -7.5 126t-86.5 38q-79 0 -174 -68l-152 -776h-327zM319 -557q58 32 97.5 74.5t50.5 79.5h-107l58 303h303l-43 -226q-8 -43 -23 -84.5t-43.5 -94.5 t-80 -100t-119.5 -79z" />
<glyph unicode="&#x147;" horiz-adv-x="1363" d="M131 0l279 1434h305l334 -762h8l147 762h328l-279 -1434h-299l-333 786h-9l-153 -786h-328zM723 1960h201l114 -164l181 164h219l-324 -391h-219z" />
<glyph unicode="&#x148;" horiz-adv-x="1157" d="M113 0l221 1139h268l8 -101q147 117 322 117q90 0 152 -31t91 -86t36.5 -129t-11.5 -161l-145 -748h-328l133 680q17 88 -7.5 126t-86.5 38q-79 0 -174 -68l-152 -776h-327zM559 1653h201l114 -164l181 164h219l-324 -391h-219z" />
<glyph unicode="&#x149;" horiz-adv-x="1157" d="M53 1198q58 32 97.5 74.5t50.5 79.5h-107l58 303h303l-43 -225q-8 -43 -23 -84.5t-44 -94.5t-80.5 -100.5t-119.5 -79.5zM113 0l221 1139h268l8 -101q147 117 322 117q90 0 152 -31t91 -86t36.5 -129t-11.5 -161l-145 -748h-328l133 680q17 88 -7.5 126t-86.5 38 q-79 0 -174 -68l-152 -776h-327z" />
<glyph unicode="&#x14a;" horiz-adv-x="1363" d="M131 0l279 1434h305l334 -762h8l147 762h328l-260 -1342q-18 -95 -41.5 -166.5t-67 -141.5t-102.5 -114.5t-149.5 -72t-206.5 -27.5q-108 0 -226 41l76 276q129 -18 178 -18q90 0 130.5 46.5t62.5 150.5l-305 720h-9l-153 -786h-328z" />
<glyph unicode="&#x14b;" horiz-adv-x="1157" d="M113 0l221 1139h268l8 -101q147 117 332 117q90 0 150.5 -31t87.5 -86t33 -129t-13 -161l-151 -775q-18 -90 -50.5 -159.5t-85 -124t-132.5 -83t-183 -28.5q-159 0 -262 64l125 241q65 -20 147 -20q44 0 73 25t38 71l141 721q17 88 -7.5 126t-86.5 38q-79 0 -174 -68 l-152 -776h-327z" />
<glyph unicode="&#x14c;" d="M182 508l82 416q23 121 71 215.5t124 165t186.5 108t251.5 37.5q268 0 384 -142t69 -384l-82 -416q-48 -249 -202.5 -386.5t-426.5 -137.5q-270 0 -387 140.5t-70 383.5zM528 530q-47 -245 156 -245q105 0 163.5 60.5t82.5 184.5l74 375q47 242 -152 242 q-203 0 -250 -242zM631 1593l47 238h608l-47 -238h-608z" />
<glyph unicode="&#x14d;" horiz-adv-x="1085" d="M156 432l53 266q89 457 547 457q234 0 335.5 -121.5t59.5 -335.5l-53 -266q-89 -448 -545 -448q-235 0 -337 119t-60 329zM487 446q-17 -91 9.5 -134.5t99.5 -43.5q75 0 117 43t61 135l47 244q19 93 -7.5 136.5t-100.5 43.5q-75 0 -117 -43t-61 -137zM494 1298l47 238 h608l-47 -238h-608z" />
<glyph unicode="&#x14e;" d="M182 508l82 416q23 121 71 215.5t124 165t186.5 108t251.5 37.5q268 0 384 -142t69 -384l-82 -416q-48 -249 -202.5 -386.5t-426.5 -137.5q-270 0 -387 140.5t-70 383.5zM528 530q-47 -245 156 -245q105 0 163.5 60.5t82.5 184.5l74 375q47 242 -152 242 q-203 0 -250 -242zM645 1708.5q-16 63.5 0 149.5l6 32h264l-6 -37q-17 -98 58 -98q77 0 94 98l6 37h276l-6 -32q-32 -167 -138.5 -243.5t-260.5 -76.5q-74 0 -132.5 17.5t-101.5 53.5t-59 99.5z" />
<glyph unicode="&#x14f;" horiz-adv-x="1085" d="M156 432l53 266q89 457 547 457q234 0 335.5 -121.5t59.5 -335.5l-53 -266q-89 -448 -545 -448q-235 0 -337 119t-60 329zM487 446q-17 -91 9.5 -134.5t99.5 -43.5q75 0 117 43t61 135l47 244q19 93 -7.5 136.5t-100.5 43.5q-75 0 -117 -43t-61 -137zM500 1413.5 q-16 63.5 0 149.5l6 32h264l-6 -36q-17 -99 57 -99q77 0 94 99l7 36h276l-6 -32q-32 -167 -138.5 -243.5t-260.5 -76.5q-74 0 -132.5 17.5t-101.5 53.5t-59 99.5z" />
<glyph unicode="&#x150;" d="M182 508l82 416q23 121 71 215.5t124 165t186.5 108t251.5 37.5q268 0 384 -142t69 -384l-82 -416q-48 -249 -202.5 -386.5t-426.5 -137.5q-270 0 -387 140.5t-70 383.5zM528 530q-47 -245 156 -245q105 0 163.5 60.5t82.5 184.5l74 375q47 242 -152 242 q-203 0 -250 -242zM623 1556l184 392h305l-276 -392h-213zM1004 1556l184 392h305l-276 -392h-213z" />
<glyph unicode="&#x151;" horiz-adv-x="1085" d="M156 432l53 266q89 457 547 457q234 0 335.5 -121.5t59.5 -335.5l-53 -266q-89 -448 -545 -448q-235 0 -337 119t-60 329zM487 446q-17 -91 9.5 -134.5t99.5 -43.5q75 0 117 43t61 135l47 244q19 93 -7.5 136.5t-100.5 43.5q-75 0 -117 -43t-61 -137zM489 1262l185 391 h305l-277 -391h-213zM870 1262l185 391h305l-277 -391h-213z" />
<glyph unicode="&#x152;" horiz-adv-x="1816" d="M182 508l82 416q48 247 202 386.5t421 139.5q69 0 135 -17t92 -42l8 43h863l-58 -291h-538l-52 -266h492l-55 -291h-492l-57 -295h538l-57 -291h-860l8 43q-38 -24 -112 -41.5t-136 -17.5q-251 0 -361 141t-63 383zM528 530q-47 -245 156 -245q105 0 163.5 60.5 t82.5 184.5l74 375q47 242 -152 242q-203 0 -250 -242z" />
<glyph unicode="&#x153;" horiz-adv-x="1662" d="M156 432l53 266q89 457 547 457q187 0 295 -84q125 84 317 84q225 0 319 -116t52 -332l-49 -258h-582l-16 -80q-10 -51 20.5 -83t112.5 -32q151 0 321 70l49 -232q-179 -108 -440 -108q-188 0 -289 75q-122 -75 -313 -75q-235 0 -337 119t-60 329zM487 446 q-17 -91 9.5 -134.5t99.5 -43.5q75 0 117 43t61 135l47 244q19 93 -7.5 136.5t-100.5 43.5q-75 0 -117 -43t-61 -137zM1155 690h272l9 37q13 80 -10.5 122t-94.5 42q-141 0 -170 -164z" />
<glyph unicode="&#x154;" horiz-adv-x="1216" d="M131 0l279 1434h489q208 0 326 -91.5t118 -275.5q0 -214 -89 -343t-236 -185l201 -539h-377l-148 492h-129l-96 -492h-338zM621 782h135q115 0 176 58.5t61 167.5q0 135 -188 135h-115zM764 1569l184 391h330l-289 -391h-225z" />
<glyph unicode="&#x155;" horiz-adv-x="829" d="M113 0l221 1139h270l-2 -142q55 70 134.5 114t154.5 44q71 0 139 -37l-119 -301q-56 27 -112 27q-53 0 -111 -28.5t-104 -76.5l-144 -739h-327zM526 1262l185 391h329l-288 -391h-226z" />
<glyph unicode="&#x156;" horiz-adv-x="1216" d="M131 0l279 1434h489q208 0 326 -91.5t118 -275.5q0 -214 -89 -343t-236 -185l201 -539h-377l-148 492h-129l-96 -492h-338zM365 -557q58 32 97 74.5t50 79.5h-106l57 303h303l-43 -226q-8 -43 -23 -84.5t-43.5 -94.5t-80 -100t-119.5 -79zM621 782h135q115 0 176 58.5 t61 167.5q0 135 -188 135h-115z" />
<glyph unicode="&#x157;" horiz-adv-x="829" d="M68 -557q58 32 97 74.5t50 79.5h-106l57 303h303l-43 -226q-8 -43 -23 -84.5t-43.5 -94.5t-80 -100t-119.5 -79zM113 0l221 1139h270l-2 -142q55 70 134.5 114t154.5 44q71 0 139 -37l-119 -301q-56 27 -112 27q-53 0 -111 -28.5t-104 -76.5l-144 -739h-327z" />
<glyph unicode="&#x158;" horiz-adv-x="1216" d="M131 0l279 1434h489q208 0 326 -91.5t118 -275.5q0 -214 -89 -343t-236 -185l201 -539h-377l-148 492h-129l-96 -492h-338zM596 1960h201l114 -164l181 164h219l-324 -391h-219zM621 782h135q115 0 176 58.5t61 167.5q0 135 -188 135h-115z" />
<glyph unicode="&#x159;" horiz-adv-x="829" d="M113 0l221 1139h270l-2 -142q55 70 134.5 114t154.5 44q71 0 139 -37l-119 -301q-56 27 -112 27q-53 0 -111 -28.5t-104 -76.5l-144 -739h-327zM408 1653h200l115 -164l180 164h219l-323 -391h-219z" />
<glyph unicode="&#x15a;" horiz-adv-x="1120" d="M61 139l166 256q221 -112 379 -112q105 0 161 46.5t56 110.5q0 34 -19 61t-51 45t-73.5 34t-87.5 32t-92.5 34.5t-88 45.5t-73.5 61.5t-51 86.5t-19 116q0 240 141 367t414 127q132 0 257 -45t206 -107l-188 -245q-153 102 -303 102q-91 0 -138 -34.5t-47 -90.5 q0 -35 31 -61.5t80 -45.5t109 -39t119.5 -49.5t108.5 -68.5t80 -104.5t31 -149.5q0 -100 -16 -177.5t-57 -145.5t-107.5 -111.5t-170.5 -68.5t-243 -25q-141 0 -285 47.5t-229 107.5zM735 1569l185 391h329l-288 -391h-226z" />
<glyph unicode="&#x15b;" horiz-adv-x="954" d="M68 106l116 238q205 -90 334 -90q80 0 114 30.5t34 75.5q0 29 -24.5 50t-63.5 35t-86.5 28.5t-94.5 35t-86 48.5t-63.5 76t-24.5 112q0 193 119.5 301.5t347.5 108.5q222 0 393 -113l-122 -231q-161 82 -291 82q-56 0 -88.5 -19.5t-32.5 -58.5q0 -27 24.5 -46.5t63.5 -33 t86 -27t94 -34.5t86 -49.5t63.5 -77.5t24.5 -113q0 -213 -118.5 -331.5t-362.5 -118.5q-106 0 -231.5 32t-210.5 90zM578 1262l184 391h330l-289 -391h-225z" />
<glyph unicode="&#x15c;" horiz-adv-x="1120" d="M61 139l166 256q221 -112 379 -112q105 0 161 46.5t56 110.5q0 34 -19 61t-51 45t-73.5 34t-87.5 32t-92.5 34.5t-88 45.5t-73.5 61.5t-51 86.5t-19 116q0 240 141 367t414 127q132 0 257 -45t206 -107l-188 -245q-153 102 -303 102q-91 0 -138 -34.5t-47 -90.5 q0 -35 31 -61.5t80 -45.5t109 -39t119.5 -49.5t108.5 -68.5t80 -104.5t31 -149.5q0 -100 -16 -177.5t-57 -145.5t-107.5 -111.5t-170.5 -68.5t-243 -25q-141 0 -285 47.5t-229 107.5zM516 1556l324 392h219l172 -392h-199l-121 164l-180 -164h-215z" />
<glyph unicode="&#x15d;" horiz-adv-x="954" d="M68 106l116 238q205 -90 334 -90q80 0 114 30.5t34 75.5q0 29 -24.5 50t-63.5 35t-86.5 28.5t-94.5 35t-86 48.5t-63.5 76t-24.5 112q0 193 119.5 301.5t347.5 108.5q222 0 393 -113l-122 -231q-161 82 -291 82q-56 0 -88.5 -19.5t-32.5 -58.5q0 -27 24.5 -46.5t63.5 -33 t86 -27t94 -34.5t86 -49.5t63.5 -77.5t24.5 -113q0 -213 -118.5 -331.5t-362.5 -118.5q-106 0 -231.5 32t-210.5 90zM387 1262l324 391h219l172 -391h-199l-121 163l-180 -163h-215z" />
<glyph unicode="&#x15e;" horiz-adv-x="1120" d="M61 139l166 256q221 -112 379 -112q105 0 161 46.5t56 110.5q0 34 -19 61t-51 45t-73.5 34t-87.5 32t-92.5 34.5t-88 45.5t-73.5 61.5t-51 86.5t-19 116q0 240 141 367t414 127q132 0 257 -45t206 -107l-188 -245q-153 102 -303 102q-91 0 -138 -34.5t-47 -90.5 q0 -35 31 -61.5t80 -45.5t109 -39t119.5 -49.5t108.5 -68.5t80 -104.5t31 -149.5q0 -100 -16 -177t-55.5 -144t-104.5 -111t-167 -69.5t-238 -26.5l-27 -60q81 6 135 -30t54 -113q0 -124 -73.5 -188t-203.5 -64q-126 0 -225 51l67 141q85 -28 146 -28q82 0 82 63 q0 17 -13 30t-43 13q-37 0 -73 -12l-52 61l44 152q-102 21 -194.5 59.5t-150.5 79.5z" />
<glyph unicode="&#x15f;" horiz-adv-x="954" d="M68 106l116 238q205 -90 334 -90q86 0 117 29.5t31 76.5q0 29 -24.5 50t-63.5 35t-86.5 28.5t-94.5 35t-86 48.5t-63.5 76t-24.5 112q0 410 467 410q222 0 393 -113l-122 -231q-161 82 -291 82q-56 0 -88.5 -19.5t-32.5 -58.5q0 -27 24.5 -46.5t63.5 -33t86 -27t94 -34.5 t86 -49.5t63.5 -77.5t24.5 -113q0 -86 -13 -152t-46 -123.5t-86.5 -94.5t-136.5 -58t-195 -22l-27 -60q81 6 135 -30t54 -113q0 -124 -73.5 -188t-203.5 -64q-126 0 -225 51l68 141q85 -28 145 -28q82 0 82 63q0 43 -55 43q-38 0 -74 -12l-51 61l45 154q-163 34 -266 104z " />
<glyph unicode="&#x160;" horiz-adv-x="1120" d="M61 139l166 256q221 -112 379 -112q105 0 161 46.5t56 110.5q0 34 -19 61t-51 45t-73.5 34t-87.5 32t-92.5 34.5t-88 45.5t-73.5 61.5t-51 86.5t-19 116q0 240 141 367t414 127q132 0 257 -45t206 -107l-188 -245q-153 102 -303 102q-91 0 -138 -34.5t-47 -90.5 q0 -35 31 -61.5t80 -45.5t109 -39t119.5 -49.5t108.5 -68.5t80 -104.5t31 -149.5q0 -100 -16 -177.5t-57 -145.5t-107.5 -111.5t-170.5 -68.5t-243 -25q-141 0 -285 47.5t-229 107.5zM598 1960h201l114 -164l181 164h219l-324 -391h-219z" />
<glyph unicode="&#x161;" horiz-adv-x="954" d="M68 106l116 238q205 -90 334 -90q80 0 114 30.5t34 75.5q0 29 -24.5 50t-63.5 35t-86.5 28.5t-94.5 35t-86 48.5t-63.5 76t-24.5 112q0 193 119.5 301.5t347.5 108.5q222 0 393 -113l-122 -231q-161 82 -291 82q-56 0 -88.5 -19.5t-32.5 -58.5q0 -27 24.5 -46.5t63.5 -33 t86 -27t94 -34.5t86 -49.5t63.5 -77.5t24.5 -113q0 -213 -118.5 -331.5t-362.5 -118.5q-106 0 -231.5 32t-210.5 90zM440 1653h201l115 -164l180 164h219l-324 -391h-219z" />
<glyph unicode="&#x162;" horiz-adv-x="1220" d="M283 1122l61 312h1083l-61 -312h-371l-219 -1122h-127l-35 -76q81 6 135 -30t54 -113q0 -124 -73.5 -188t-203.5 -64q-126 0 -225 51l68 141q85 -28 145 -28q82 0 82 63q0 43 -55 43q-38 0 -74 -12l-51 61l45 152h-25l219 1122h-372z" />
<glyph unicode="&#x163;" horiz-adv-x="905" d="M207 877l49 247l188 15l41 209l326 32l-47 -241h287l-52 -262h-286l-101 -519q-7 -40 17 -63t71 -23q67 0 156 27l29 -233q-138 -79 -295 -82l-27 -60q81 6 135 -30t54 -113q0 -124 -73.5 -188t-203.5 -64q-126 0 -225 51l67 141q85 -28 146 -28q82 0 82 63q0 17 -13 30 t-43 13q-37 0 -73 -12l-51 61l43 166q-174 78 -119 365l96 498h-178z" />
<glyph unicode="&#x164;" horiz-adv-x="1220" d="M283 1122l61 312h1083l-61 -312h-371l-219 -1122h-340l219 1122h-372zM633 1960h201l114 -164l180 164h220l-324 -391h-219z" />
<glyph unicode="&#x165;" horiz-adv-x="905" d="M207 877l49 247l188 15l41 209l326 32l-47 -241h287l-52 -262h-286l-101 -519q-7 -40 17 -63t71 -23q67 0 156 27l29 -233q-143 -82 -299 -82q-103 0 -172 29t-99.5 81.5t-38 125t12.5 159.5l96 498h-178zM868 1229l125 444h322l-223 -444h-224z" />
<glyph unicode="&#x166;" horiz-adv-x="1220" d="M285 1143l57 291h1083l-57 -291h-371l-47 -238h236l-45 -237h-236l-129 -668h-340l129 668h-231l45 237h231l47 238h-372z" />
<glyph unicode="&#x167;" horiz-adv-x="905" d="M162 551l47 237h160l16 89h-178l47 247l190 15l41 209l326 32l-47 -241h287l-52 -262h-286l-17 -89h242l-47 -237h-242l-37 -193q-7 -40 17 -63t71 -23q67 0 156 27l29 -233q-143 -82 -299 -82q-103 0 -172 29t-99.5 81.5t-38 125t12.5 159.5l33 172h-160z" />
<glyph unicode="&#x168;" horiz-adv-x="1310" d="M215 485l184 949h340l-180 -930q-22 -109 10.5 -166t141.5 -57t162 56.5t75 166.5l180 930h340l-184 -949q-23 -122 -68 -212.5t-118 -156.5t-179 -99t-245 -33q-265 0 -385 131.5t-74 369.5zM592 1628q135 252 295 252q48 0 94 -24.5t86 -49t72 -24.5q57 0 116 92 l146 -72q-81 -141 -148 -196.5t-147 -55.5q-38 0 -75.5 15.5t-62.5 34t-56 34t-58 15.5q-58 0 -111 -95z" />
<glyph unicode="&#x169;" horiz-adv-x="1146" d="M178 391l146 748h327l-133 -680q-17 -88 7.5 -126t86.5 -38q80 0 174 67l152 777h328l-222 -1139h-268l-8 100q-146 -116 -317 -116q-176 0 -242.5 112t-30.5 295zM449 1321q135 252 294 252q48 0 94 -24.5t86 -49t72 -24.5q58 0 117 92l145 -72q-81 -141 -147.5 -196.5 t-146.5 -55.5q-48 0 -93.5 24.5t-85.5 49t-73 24.5q-59 0 -111 -94z" />
<glyph unicode="&#x16a;" horiz-adv-x="1310" d="M215 485l184 949h340l-180 -930q-22 -109 10.5 -166t141.5 -57t162 56.5t75 166.5l180 930h340l-184 -949q-23 -122 -68 -212.5t-118 -156.5t-179 -99t-245 -33q-265 0 -385 131.5t-74 369.5zM668 1593l47 238h608l-47 -238h-608z" />
<glyph unicode="&#x16b;" horiz-adv-x="1146" d="M178 391l146 748h327l-133 -680q-17 -88 7.5 -126t86.5 -38q80 0 174 67l152 777h328l-222 -1139h-268l-8 100q-146 -116 -317 -116q-176 0 -242.5 112t-30.5 295zM532 1298l48 238h608l-47 -238h-609z" />
<glyph unicode="&#x16c;" horiz-adv-x="1310" d="M215 485l184 949h340l-180 -930q-22 -109 10.5 -166t141.5 -57t162 56.5t75 166.5l180 930h340l-184 -949q-23 -122 -68 -212.5t-118 -156.5t-179 -99t-245 -33q-265 0 -385 131.5t-74 369.5zM682 1708.5q-16 63.5 0 149.5l6 32h264l-6 -37q-17 -98 58 -98q77 0 94 98 l6 37h276l-6 -32q-32 -167 -138.5 -243.5t-260.5 -76.5q-74 0 -132.5 17.5t-101.5 53.5t-59 99.5z" />
<glyph unicode="&#x16d;" horiz-adv-x="1146" d="M178 391l146 748h327l-133 -680q-17 -88 7.5 -126t86.5 -38q80 0 174 67l152 777h328l-222 -1139h-268l-8 100q-146 -116 -317 -116q-176 0 -242.5 112t-30.5 295zM537 1413q-14 61 0 150l6 32h264l-6 -36q-17 -99 57 -99q77 0 94 99l6 36h277l-6 -32 q-32 -167 -139 -243.5t-261 -76.5q-74 0 -132 17t-102 54.5t-58 98.5z" />
<glyph unicode="&#x16e;" horiz-adv-x="1310" d="M215 485l184 949h340l-180 -930q-22 -109 10.5 -166t141.5 -57t162 56.5t75 166.5l180 930h340l-184 -949q-23 -122 -68 -212.5t-118 -156.5t-179 -99t-245 -33q-265 0 -385 131.5t-74 369.5zM745 1720q0 126 83.5 206.5t213.5 80.5q98 0 160 -55.5t62 -145.5 q0 -125 -83.5 -204.5t-213.5 -79.5q-98 0 -160 54.5t-62 143.5zM918 1747q0 -29 19 -47.5t52 -18.5q45 0 73 28.5t28 70.5q0 30 -18 48.5t-52 18.5q-46 0 -74 -29.5t-28 -70.5z" />
<glyph unicode="&#x16f;" horiz-adv-x="1146" d="M178 391l146 748h327l-133 -680q-17 -88 7.5 -126t86.5 -38q80 0 174 67l152 777h328l-222 -1139h-268l-8 100q-146 -116 -317 -116q-176 0 -242.5 112t-30.5 295zM608 1425q0 126 83.5 206.5t213.5 80.5q97 0 159 -55.5t62 -145.5q0 -125 -83.5 -204.5t-213.5 -79.5 q-97 0 -159 54.5t-62 143.5zM780 1452q0 -29 19.5 -47.5t52.5 -18.5q45 0 72.5 28.5t27.5 70.5q0 31 -17.5 49t-51.5 18q-46 0 -74.5 -29.5t-28.5 -70.5z" />
<glyph unicode="&#x170;" horiz-adv-x="1310" d="M215 485l184 949h340l-180 -930q-22 -109 10.5 -166t141.5 -57t162 56.5t75 166.5l180 930h340l-184 -949q-23 -122 -68 -212.5t-118 -156.5t-179 -99t-245 -33q-265 0 -385 131.5t-74 369.5zM639 1569l184 391h305l-276 -391h-213zM1020 1569l184 391h305l-276 -391 h-213z" />
<glyph unicode="&#x171;" horiz-adv-x="1146" d="M178 391l146 748h327l-133 -680q-17 -88 7.5 -126t86.5 -38q80 0 174 67l152 777h328l-222 -1139h-268l-8 100q-146 -116 -317 -116q-176 0 -242.5 112t-30.5 295zM492 1262l184 391h305l-276 -391h-213zM872 1262l185 391h305l-277 -391h-213z" />
<glyph unicode="&#x172;" horiz-adv-x="1310" d="M215 485l184 949h340l-180 -930q-22 -109 10.5 -166t141.5 -57t162 56.5t75 166.5l180 930h340l-184 -949q-58 -291 -258 -422q-134 -89 -186 -145t-52 -108q0 -29 17.5 -46.5t48.5 -17.5q18 0 39.5 4t34.5 8l12 4l12 -174q-95 -59 -233 -59q-95 0 -154 41t-59 125 q0 151 235 291q-12 0 -34 -1t-33 -1q-265 0 -385 131.5t-74 369.5z" />
<glyph unicode="&#x173;" horiz-adv-x="1146" d="M178 391l146 748h327l-133 -680q-17 -88 7.5 -126t86.5 -38q80 0 174 67l152 777h328l-222 -1139q-111 -33 -178 -82.5t-67 -112.5q0 -28 18.5 -43.5t50.5 -15.5q18 0 38.5 4t31.5 8l12 4l15 -174q-41 -26 -105 -42.5t-129 -16.5q-94 0 -153.5 45t-59.5 129q0 99 85 177 t218 120h-45l-8 100q-146 -116 -317 -116q-176 0 -242.5 112t-30.5 295z" />
<glyph unicode="&#x174;" horiz-adv-x="1820" d="M319 1434h359l-27 -910h8l381 910h275l28 -910h9l325 910h381l-618 -1434h-350l-35 780h-8l-340 -780h-326zM860 1569l324 391h219l172 -391h-199l-121 164l-180 -164h-215z" />
<glyph unicode="&#x175;" horiz-adv-x="1511" d="M248 1139h334l-31 -703h8l270 703h275l-4 -703h8l244 703h356l-506 -1139h-332l-18 504h-8l-219 -504h-316zM645 1262l324 391h219l172 -391h-199l-121 163l-180 -163h-215z" />
<glyph unicode="&#x176;" horiz-adv-x="1306" d="M317 1434h365l125 -551h12l336 551h391l-612 -875l-109 -559h-344l109 559zM602 1569l324 391h219l172 -391h-199l-121 164l-180 -164h-215z" />
<glyph unicode="&#x177;" horiz-adv-x="1073" d="M76 -328l131 238q88 -37 151.5 -49.5t141.5 -12.5q94 0 150 42.5t69 109.5l14 70q-130 -86 -282 -86q-176 0 -242.5 112t-30.5 295l146 748h327l-133 -680q-17 -88 7.5 -126t86.5 -38q80 0 174 67l152 777h328l-213 -1092q-43 -221 -184.5 -349t-374.5 -128 q-118 0 -236 27t-182 75zM459 1262l323 391h219l173 -391h-199l-121 163l-180 -163h-215z" />
<glyph unicode="&#x178;" horiz-adv-x="1306" d="M317 1434h365l125 -551h12l336 551h391l-612 -875l-109 -559h-344l109 559zM621 1575l55 280h274l-55 -280h-274zM1026 1575l55 280h275l-56 -280h-274z" />
<glyph unicode="&#x179;" horiz-adv-x="1153" d="M88 0l45 227l729 920h-520l55 287h946l-43 -224l-731 -919h553l-57 -291h-977zM750 1569l184 391h330l-289 -391h-225z" />
<glyph unicode="&#x17a;" horiz-adv-x="1024" d="M66 0l43 219l577 641h-426l53 279h840l-41 -209l-575 -643h475l-56 -287h-890zM614 1262l185 391h329l-288 -391h-226z" />
<glyph unicode="&#x17b;" horiz-adv-x="1153" d="M88 0l45 227l729 920h-520l55 287h946l-43 -224l-731 -919h553l-57 -291h-977zM750 1550l63 322h336l-64 -322h-335z" />
<glyph unicode="&#x17c;" horiz-adv-x="1024" d="M66 0l43 219l577 641h-426l53 279h840l-41 -209l-575 -643h475l-56 -287h-890zM610 1255l64 322h336l-64 -322h-336z" />
<glyph unicode="&#x17d;" horiz-adv-x="1153" d="M88 0l45 227l729 920h-520l55 287h946l-43 -224l-731 -919h553l-57 -291h-977zM635 1960h201l114 -164l180 164h220l-324 -391h-219z" />
<glyph unicode="&#x17e;" horiz-adv-x="1024" d="M66 0l43 219l577 641h-426l53 279h840l-41 -209l-575 -643h475l-56 -287h-890zM475 1653h201l115 -164l180 164h219l-324 -391h-219z" />
<glyph unicode="&#x192;" horiz-adv-x="1105" d="M-240 -350l90 235q70 -30 162 -30q113 0 129 96l127 797h-176l39 245l180 25l25 121q15 75 36 133.5t55.5 111.5t80 88t111 55.5t147.5 20.5q149 0 278 -73l-114 -244q-68 33 -135 33q-53 0 -85 -30.5t-42 -80.5l-29 -135h268l-43 -270h-268l-127 -783 q-64 -395 -438 -395q-75 0 -150 23t-121 57z" />
<glyph unicode="&#x1e2;" horiz-adv-x="1710" d="M16 0l734 1434h1126l-57 -291h-709l27 -266h583l-55 -291h-491l36 -295h445l-58 -291h-702l-27 281h-360l-131 -281h-361zM631 573h225l-27 416h-8zM965 1593l47 238h608l-47 -238h-608z" />
<glyph unicode="&#x1e3;" horiz-adv-x="1632" d="M121 254q0 99 38.5 179t102.5 132.5t152.5 88.5t184 51.5t200.5 15.5l10 49q10 51 -17.5 82t-109.5 31q-142 0 -336 -84l-67 227q113 61 242 95t241 34q183 0 280 -72q128 72 299 72q453 0 367 -448l-49 -258h-582l-14 -68q-13 -57 19 -92t112 -35q82 0 152 13.5 t184 56.5l35 -232q-181 -108 -443 -108q-256 0 -342 157q-145 -157 -354 -157q-130 0 -217.5 73.5t-87.5 196.5zM453 326q0 -38 24.5 -60t69.5 -22q105 0 178 90l31 166q-83 0 -150 -18t-110 -58.5t-43 -97.5zM786 1298l48 238h608l-47 -238h-609zM1124 690h273l6 37 q13 80 -10.5 122t-94.5 42q-139 0 -168 -164z" />
<glyph unicode="&#x1fa;" horiz-adv-x="1269" d="M18 0l689 1352q-29 47 -29 114q0 128 85.5 210.5t213.5 82.5q95 0 150 -53t55 -143q0 -119 -95 -211l164 -1352h-356l-27 281h-356l-129 -281h-365zM635 573h221l-25 416h-8zM844 1499q0 -29 18 -47t51 -18q45 0 74 28t29 70q0 30 -18.5 48.5t-51.5 18.5q-47 0 -74.5 -29 t-27.5 -71zM850 1815l184 391h330l-289 -391h-225z" />
<glyph unicode="&#x1fb;" horiz-adv-x="1214" d="M158 434l51 273q40 212 159.5 330t299.5 118q87 0 144.5 -32.5t82.5 -84.5l72 101h268l-154 -791q-16 -96 70 -96q30 0 61 8v-215q-87 -61 -204 -61q-169 0 -215 120q-73 -59 -148.5 -89.5t-183.5 -30.5q-188 0 -265.5 118.5t-37.5 331.5zM492 473q-19 -92 6.5 -136 t97.5 -44q81 0 160 76l80 403q-51 74 -131 74q-71 0 -113.5 -44t-61.5 -136zM580 1423q0 116 69 194.5t187 90.5l114 242h330l-231 -314q32 -46 32 -123q0 -127 -78 -206.5t-212 -79.5q-95 0 -153 53.5t-58 142.5zM743 1452q0 -29 19.5 -47.5t52.5 -18.5q45 0 72.5 28.5 t27.5 70.5q0 31 -17.5 49t-51.5 18q-46 0 -74.5 -29.5t-28.5 -70.5z" />
<glyph unicode="&#x1fc;" horiz-adv-x="1708" d="M16 0l734 1434h1126l-57 -291h-709l27 -266h583l-55 -291h-491l36 -295h445l-58 -291h-702l-27 281h-360l-131 -281h-361zM631 573h225l-27 416h-8zM1022 1569l184 391h330l-289 -391h-225z" />
<glyph unicode="&#x1fd;" horiz-adv-x="1632" d="M121 254q0 99 38.5 179t102.5 132.5t152.5 88.5t184 51.5t200.5 15.5l10 49q10 51 -17.5 82t-109.5 31q-142 0 -336 -84l-67 227q113 61 242 95t241 34q183 0 280 -72q128 72 299 72q453 0 367 -448l-49 -258h-582l-14 -68q-13 -57 19 -92t112 -35q82 0 152 13.5 t184 56.5l35 -232q-181 -108 -443 -108q-256 0 -342 157q-145 -157 -354 -157q-130 0 -217.5 73.5t-87.5 196.5zM453 326q0 -38 24.5 -60t69.5 -22q105 0 178 90l31 166q-83 0 -150 -18t-110 -58.5t-43 -97.5zM897 1262l184 391h330l-289 -391h-225zM1124 690h273l6 37 q13 80 -10.5 122t-94.5 42q-139 0 -168 -164z" />
<glyph unicode="&#x1fe;" d="M150 -127l126 215q-148 137 -94 420l82 416q47 244 213 385t434 141q91 0 164 -18l76 129h229l-127 -218q151 -139 97 -419l-82 -416q-47 -245 -210.5 -384.5t-430.5 -139.5q-98 0 -172 18l-76 -129h-229zM524 504l379 639q-32 4 -51 4q-109 0 -167.5 -59.5t-82.5 -182.5 zM627 291q24 -6 57 -6q109 0 165.5 59.5t80.5 185.5l78 404zM772 1569l184 391h330l-289 -391h-225z" />
<glyph unicode="&#x1ff;" horiz-adv-x="1085" d="M156 432l53 266q89 457 547 457q81 0 141 -14l53 92h180l-90 -154q79 -57 107.5 -154.5t3.5 -226.5l-53 -266q-89 -448 -545 -448q-68 0 -147 14l-48 -82h-180l84 143q-159 117 -106 373zM485 440l252 428q-8 2 -24 2q-75 0 -117 -43t-61 -137l-48 -244q0 -1 -1 -3t-1 -3 zM565 270q10 -2 31 -2q75 0 117 43t61 135l47 244l2 21zM629 1262l184 391h330l-289 -391h-225z" />
<glyph unicode="&#x218;" horiz-adv-x="1120" d="M61 139l166 256q221 -112 379 -112q105 0 161 46.5t56 110.5q0 34 -19 61t-51 45t-73.5 34t-87.5 32t-92.5 34.5t-88 45.5t-73.5 61.5t-51 86.5t-19 116q0 240 141 367t414 127q132 0 257 -45t206 -107l-188 -245q-153 102 -303 102q-91 0 -138 -34.5t-47 -90.5 q0 -35 31 -61.5t80 -45.5t109 -39t119.5 -49.5t108.5 -68.5t80 -104.5t31 -149.5q0 -100 -16 -177.5t-57 -145.5t-107.5 -111.5t-170.5 -68.5t-243 -25q-141 0 -285 47.5t-229 107.5zM283 -557q58 32 97 74.5t50 79.5h-106l57 303h303l-43 -226q-8 -43 -23 -84.5 t-43.5 -94.5t-80 -100t-119.5 -79z" />
<glyph unicode="&#x219;" horiz-adv-x="954" d="M68 106l116 238q205 -90 334 -90q80 0 114 30.5t34 75.5q0 29 -24.5 50t-63.5 35t-86.5 28.5t-94.5 35t-86 48.5t-63.5 76t-24.5 112q0 193 119.5 301.5t347.5 108.5q222 0 393 -113l-122 -231q-161 82 -291 82q-56 0 -88.5 -19.5t-32.5 -58.5q0 -27 24.5 -46.5t63.5 -33 t86 -27t94 -34.5t86 -49.5t63.5 -77.5t24.5 -113q0 -213 -118.5 -331.5t-362.5 -118.5q-106 0 -231.5 32t-210.5 90zM219 -557q58 32 97.5 74.5t50.5 79.5h-107l57 303h304l-43 -226q-8 -43 -23 -84.5t-44 -94.5t-80.5 -100t-119.5 -79z" />
<glyph unicode="&#x21a;" horiz-adv-x="1220" d="M283 1122l61 312h1083l-61 -312h-371l-219 -1122h-340l219 1122h-372zM338 -557q58 32 97 74.5t50 79.5h-106l57 303h303l-43 -226q-8 -43 -23 -84.5t-43.5 -94.5t-80 -100t-119.5 -79z" />
<glyph unicode="&#x21b;" horiz-adv-x="905" d="M207 877l49 247l188 15l41 209l326 32l-47 -241h287l-52 -262h-286l-101 -519q-7 -40 17 -63t71 -23q67 0 156 27l29 -233q-143 -82 -299 -82q-103 0 -172 29t-99.5 81.5t-38 125t12.5 159.5l96 498h-178zM252 -557q58 32 97 74.5t50 79.5h-106l57 303h303l-43 -226 q-8 -43 -23 -84.5t-43.5 -94.5t-80 -100t-119.5 -79z" />
<glyph unicode="&#x237;" horiz-adv-x="641" d="M-180 -358l125 241q65 -20 147 -20q44 0 73 25t38 71l178 918h-176l53 262h502l-228 -1166q-18 -90 -50.5 -159.5t-85 -124t-132 -83t-182.5 -28.5q-159 0 -262 64z" />
<glyph unicode="&#x2c6;" horiz-adv-x="999" d="M387 1262l324 391h219l172 -391h-199l-121 163l-180 -163h-215z" />
<glyph unicode="&#x2c7;" horiz-adv-x="999" d="M463 1653h201l114 -164l180 164h220l-324 -391h-219z" />
<glyph unicode="&#x2d8;" horiz-adv-x="833" d="M373 1413.5q-16 63.5 0 149.5l6 32h264l-6 -36q-17 -99 57 -99q77 0 94 99l7 36h276l-6 -32q-32 -167 -138.5 -243.5t-260.5 -76.5q-74 0 -132.5 17.5t-101.5 53.5t-59 99.5z" />
<glyph unicode="&#x2d9;" horiz-adv-x="471" d="M311 1255l64 322h336l-64 -322h-336z" />
<glyph unicode="&#x2da;" horiz-adv-x="974" d="M514 1425q0 126 83.5 206.5t213.5 80.5q97 0 159 -55.5t62 -145.5q0 -125 -83.5 -204.5t-213.5 -79.5q-97 0 -159 54.5t-62 143.5zM686 1452q0 -29 19.5 -47.5t52.5 -18.5q45 0 72.5 28.5t27.5 70.5q0 30 -18 48.5t-52 18.5q-46 0 -74 -29.5t-28 -70.5z" />
<glyph unicode="&#x2db;" horiz-adv-x="849" d="M133 -297q0 99 85 177t218 120h223q-111 -33 -178 -82.5t-67 -112.5q0 -28 18.5 -43.5t50.5 -15.5q18 0 38.5 4t32.5 8l11 4l15 -174q-41 -26 -105 -42.5t-129 -16.5q-94 0 -153.5 45t-59.5 129z" />
<glyph unicode="&#x2dc;" horiz-adv-x="876" d="M307 1321q135 252 295 252q48 0 94 -24.5t86 -49t72 -24.5q58 0 117 92l145 -72q-81 -141 -148 -196.5t-147 -55.5q-48 0 -93.5 24.5t-85.5 49t-73 24.5q-58 0 -110 -94z" />
<glyph unicode="&#x2dd;" horiz-adv-x="894" d="M301 1262l184 391h306l-277 -391h-213zM682 1262l184 391h305l-276 -391h-213z" />
<glyph unicode="&#x1e80;" horiz-adv-x="1820" d="M319 1434h359l-27 -910h8l381 910h275l28 -910h9l325 910h381l-618 -1434h-350l-35 780h-8l-340 -780h-326zM1006 1960h329l33 -391h-215z" />
<glyph unicode="&#x1e81;" horiz-adv-x="1511" d="M248 1139h334l-31 -703h8l270 703h275l-4 -703h8l244 703h356l-506 -1139h-332l-18 504h-8l-219 -504h-316zM782 1653h330l33 -391h-215z" />
<glyph unicode="&#x1e82;" horiz-adv-x="1820" d="M319 1434h359l-27 -910h8l381 910h275l28 -910h9l325 910h381l-618 -1434h-350l-35 780h-8l-340 -780h-326zM1073 1569l184 391h330l-289 -391h-225z" />
<glyph unicode="&#x1e83;" horiz-adv-x="1511" d="M248 1139h334l-31 -703h8l270 703h275l-4 -703h8l244 703h356l-506 -1139h-332l-18 504h-8l-219 -504h-316zM864 1262l185 391h329l-288 -391h-226z" />
<glyph unicode="&#x1e84;" horiz-adv-x="1820" d="M319 1434h359l-27 -910h8l381 910h275l28 -910h9l325 910h381l-618 -1434h-350l-35 780h-8l-340 -780h-326zM877 1575l55 280h274l-55 -280h-274zM1282 1575l55 280h275l-56 -280h-274z" />
<glyph unicode="&#x1e85;" horiz-adv-x="1511" d="M248 1139h334l-31 -703h8l270 703h275l-4 -703h8l244 703h356l-506 -1139h-332l-18 504h-8l-219 -504h-316zM666 1268l55 280h274l-55 -280h-274zM1071 1268l55 280h275l-55 -280h-275z" />
<glyph unicode="&#x1ef2;" horiz-adv-x="1306" d="M317 1434h365l125 -551h12l336 551h391l-612 -875l-109 -559h-344l109 559zM735 1960h330l33 -391h-215z" />
<glyph unicode="&#x1ef3;" horiz-adv-x="1073" d="M76 -328l131 238q88 -37 151.5 -49.5t141.5 -12.5q94 0 150 42.5t69 109.5l14 70q-130 -86 -282 -86q-176 0 -242.5 112t-30.5 295l146 748h327l-133 -680q-17 -88 7.5 -126t86.5 -38q80 0 174 67l152 777h328l-213 -1092q-43 -221 -184.5 -349t-374.5 -128 q-118 0 -236 27t-182 75zM592 1653h330l32 -391h-215z" />
<glyph unicode="&#x2000;" horiz-adv-x="1103" />
<glyph unicode="&#x2001;" horiz-adv-x="2206" />
<glyph unicode="&#x2002;" horiz-adv-x="1103" />
<glyph unicode="&#x2003;" horiz-adv-x="2206" />
<glyph unicode="&#x2004;" horiz-adv-x="735" />
<glyph unicode="&#x2005;" horiz-adv-x="551" />
<glyph unicode="&#x2006;" horiz-adv-x="367" />
<glyph unicode="&#x2007;" horiz-adv-x="367" />
<glyph unicode="&#x2008;" horiz-adv-x="275" />
<glyph unicode="&#x2009;" horiz-adv-x="441" />
<glyph unicode="&#x200a;" horiz-adv-x="122" />
<glyph unicode="&#x2010;" horiz-adv-x="765" d="M166 481l53 279h623l-54 -279h-622z" />
<glyph unicode="&#x2011;" horiz-adv-x="765" d="M166 481l53 279h623l-54 -279h-622z" />
<glyph unicode="&#x2012;" horiz-adv-x="765" d="M166 481l53 279h623l-54 -279h-622z" />
<glyph unicode="&#x2013;" horiz-adv-x="1052" d="M145 481l54 279h950l-53 -279h-951z" />
<glyph unicode="&#x2014;" horiz-adv-x="1734" d="M182 481l54 279h1556l-53 -279h-1557z" />
<glyph unicode="&#x2018;" horiz-adv-x="675" d="M315 958l45 228q30 154 114.5 263.5t250.5 219.5l115 -151q-75 -44 -129 -98.5t-72 -108.5h113l-68 -353h-369z" />
<glyph unicode="&#x2019;" horiz-adv-x="675" d="M342 1098q75 44 129 98.5t72 108.5h-113l68 352h368l-45 -227q-30 -155 -114.5 -264.5t-249.5 -219.5z" />
<glyph unicode="&#x201a;" horiz-adv-x="567" d="M12 -207q75 44 129 98.5t72 108.5h-113l68 352h369l-45 -227q-30 -154 -114.5 -263.5t-250.5 -219.5z" />
<glyph unicode="&#x201c;" horiz-adv-x="1187" d="M313 958l45 228q30 154 114.5 263.5t250.5 219.5l115 -151q-75 -44 -129 -98.5t-72 -108.5h113l-68 -353h-369zM829 958l45 228q30 154 114.5 263.5t250.5 219.5l115 -151q-75 -44 -129 -98.5t-72 -108.5h113l-68 -353h-369z" />
<glyph unicode="&#x201d;" horiz-adv-x="1187" d="M342 1098q75 44 129 98.5t72 108.5h-113l68 352h368l-45 -227q-30 -155 -114.5 -264.5t-249.5 -219.5zM858 1098q75 44 129 98.5t72 108.5h-113l68 352h368l-45 -227q-30 -155 -114.5 -264.5t-249.5 -219.5z" />
<glyph unicode="&#x201e;" horiz-adv-x="1079" d="M12 -207q75 44 129 98.5t72 108.5h-113l68 352h369l-45 -227q-30 -154 -114.5 -263.5t-250.5 -219.5zM528 -207q75 44 129 98.5t72 108.5h-113l68 352h369l-45 -227q-30 -154 -114.5 -263.5t-250.5 -219.5z" />
<glyph unicode="&#x2020;" horiz-adv-x="1036" d="M252 844l55 289l271 -7l63 383h340l-82 -383l268 7l-55 -289l-268 8l-197 -936h-291l168 936z" />
<glyph unicode="&#x2021;" horiz-adv-x="1036" d="M145 293l56 289l270 -9l53 279l-272 -8l57 289l269 -7l63 383h340l-82 -383l270 7l-57 -289l-268 8l-53 -279l270 9l-55 -289l-267 6l-67 -383h-340l86 383z" />
<glyph unicode="&#x2022;" horiz-adv-x="835" d="M258 573q0 140 96 233t238 93q106 0 166.5 -61t60.5 -162q0 -140 -96 -233t-238 -93q-105 0 -166 61t-61 162z" />
<glyph unicode="&#x202f;" horiz-adv-x="441" />
<glyph unicode="&#x2030;" horiz-adv-x="2707" d="M285 954l30 181q26 155 123.5 235t257.5 80q156 0 231.5 -82t45.5 -233l-37 -181q-62 -313 -375 -313q-155 0 -228.5 80t-47.5 233zM547 938q-6 -28 9 -43.5t40 -15.5q24 0 45 15.5t27 43.5l41 217q6 28 -8.5 43.5t-38.5 15.5q-25 0 -45.5 -15.5t-26.5 -43.5zM569 -59 l805 1552h289l-805 -1552h-289zM1262 297l30 180q26 155 123.5 235.5t257.5 80.5q156 0 231.5 -82.5t45.5 -233.5l-37 -180q-62 -313 -375 -313q-155 0 -228.5 80t-47.5 233zM1524 281q-6 -28 9 -44t40 -16q24 0 45 16t27 44l41 217q6 28 -9 43.5t-39 15.5q-25 0 -45 -15.5 t-26 -43.5zM2013 297l31 180q26 155 123.5 235.5t257.5 80.5q155 0 230.5 -82.5t45.5 -233.5l-37 -180q-62 -313 -374 -313q-155 0 -229 80t-48 233zM2275 281q-6 -28 9 -44t40 -16q24 0 45 16t27 44l41 217q6 28 -8.5 43.5t-38.5 15.5q-25 0 -45.5 -15.5t-26.5 -43.5z" />
<glyph unicode="&#x2039;" horiz-adv-x="804" d="M197 532l30 160l699 400l-45 -236l-316 -250l219 -237l-45 -236z" />
<glyph unicode="&#x203a;" horiz-adv-x="804" d="M119 133l45 236l315 249l-219 238l45 236l543 -400l-31 -160z" />
<glyph unicode="&#x2044;" horiz-adv-x="815" d="M-18 -51l815 1536h315l-815 -1536h-315z" />
<glyph unicode="&#x205f;" horiz-adv-x="551" />
<glyph unicode="&#x20ac;" horiz-adv-x="1294" d="M184 471l39 205h111l16 78h-110l39 204h112l2 15q36 225 189 351t417 126q124 0 240 -39.5t203 -110.5l-172 -225q-91 47 -157.5 66.5t-149.5 19.5q-95 0 -160 -50.5t-78 -137.5l-2 -15h328l-39 -204h-330l-16 -78h329l-39 -205h-329l-2 -8q-20 -86 24.5 -137.5 t138.5 -51.5q82 0 151 18.5t187 67.5l109 -221q-239 -153 -508 -153q-258 0 -372 124.5t-62 352.5l2 8h-111z" />
<glyph unicode="&#x2122;" horiz-adv-x="1546" d="M305 1253l35 181h588l-35 -181h-188l-113 -581h-207l113 581h-193zM885 672l147 762h178l107 -381h12l246 381h186l-147 -762h-189l68 348h-8l-146 -232h-133l-57 232h-8l-68 -348h-188z" />
<glyph unicode="&#x2190;" horiz-adv-x="1765" d="M197 707l696 669l182 -188l-370 -346h1054v-271h-1054l372 -344l-184 -190z" />
<glyph unicode="&#x2191;" horiz-adv-x="1499" d="M240 817l669 696l670 -696l-190 -184l-345 373v-1055h-270v1055l-346 -371z" />
<glyph unicode="&#x2192;" horiz-adv-x="1765" d="M225 571v271h1055l-371 346l183 188l696 -669l-696 -670l-185 190l373 344h-1055z" />
<glyph unicode="&#x2193;" horiz-adv-x="1499" d="M201 623l188 182l346 -371v1055h271v-1055l344 373l190 -184l-670 -697z" />
<glyph unicode="&#x2212;" horiz-adv-x="1046" d="M127 485l53 271h981l-53 -271h-981z" />
<glyph unicode="&#x2260;" horiz-adv-x="1042" d="M82 254l53 270h328l98 193h-389l53 270h473l76 150h260l-76 -150h248l-53 -270h-332l-98 -193h393l-53 -270h-477l-76 -150h-260l76 150h-244z" />
<glyph unicode="&#x25fc;" horiz-adv-x="1136" d="M0 0v1137h1137v-1137h-1137z" />
<glyph unicode="&#xf6c3;" horiz-adv-x="516" d="M-8 -557q58 32 97 74.5t50 79.5h-106l57 303h303l-43 -226q-8 -43 -23 -84.5t-43.5 -94.5t-80 -100t-119.5 -79z" />
<glyph horiz-adv-x="1220" d="M194 354.5q-2 80.5 13 169.5l76 385q23 118 68.5 213.5t117 170.5t177 116t237.5 41q103 0 183 -28t129.5 -77.5t78.5 -117.5t31 -148.5t-13 -169.5l-73 -385q-23 -118 -68.5 -213.5t-117.5 -170t-177.5 -115.5t-237.5 -41q-103 0 -183.5 28t-130 77.5t-79 117t-31.5 148 zM530 561l306 608q-93 -1 -153 -71t-83 -189zM596 268q21 -6 66 -6q94 0 155 71t84 189l76 387q16 86 6 125z" />
<glyph horiz-adv-x="1230" d="M194 354.5q-2 80.5 13 169.5l76 385q23 118 68.5 213.5t117 170.5t177 116t237.5 41q103 0 183 -28t129.5 -77.5t78.5 -117.5t31 -148.5t-13 -169.5l-73 -385q-23 -118 -68.5 -213.5t-117.5 -170t-177.5 -115.5t-237.5 -41q-103 0 -183.5 28t-130 77.5t-79 117t-31.5 148 zM538 411q2 -56 34.5 -88t95.5 -32q93 0 143 65t74 187l67 348q14 77 11.5 133t-34.5 87.5t-95 31.5q-93 0 -144 -64.5t-74 -187.5l-67 -348q-13 -76 -11 -132z" />
<glyph horiz-adv-x="1230" d="M193 0l55 285h327l158 811l-323 -115q-5 18 -56 256l547 197h234l-224 -1149h242l-55 -285h-905z" />
<glyph horiz-adv-x="1230" d="M129 0l43 217q19 98 73 186t123.5 153t149.5 123t156 105t138 90.5t100 89t38 89.5q0 51 -40 78.5t-111 27.5q-144 0 -340 -110l-111 233q120 77 261 122.5t270 45.5q195 0 306 -91t111 -243q0 -94 -39.5 -179t-103.5 -148.5t-141.5 -120.5t-157 -105t-147 -91 t-114.5 -88.5t-56 -88.5h626l-57 -295h-977z" />
<glyph horiz-adv-x="1230" d="M127 147l176 238q176 -109 334 -109q120 0 177.5 54.5t57.5 146.5q0 58 -40 93.5t-115 35.5h-268l51 264h241q88 0 145.5 44t57.5 128q0 54 -33 84.5t-102 30.5q-85 0 -178 -30t-168 -74l-96 235q127 80 266 121t264 41q193 0 293 -90t100 -244q0 -102 -46 -195 t-134 -157q100 -84 100 -240q0 -83 -15.5 -155t-57 -145t-107 -124.5t-173.5 -83.5t-249 -32q-135 0 -263.5 48t-217.5 115z" />
<glyph horiz-adv-x="1230" d="M109 258l43 217l583 959h338l-549 -891h256l66 340h323l-65 -340h170l-55 -285h-170l-50 -258h-323l49 258h-616z" />
<glyph horiz-adv-x="1232" d="M131 150l172 233q193 -107 336 -107q119 0 179.5 66.5t60.5 167.5q0 71 -43.5 115.5t-126.5 44.5q-108 0 -248 -72l-154 109l185 727h813l-58 -289h-536l-56 -219q66 24 154 24q204 0 306 -105t102 -276q0 -86 -15 -163t-56 -156.5t-105 -136.5t-170 -93t-244 -36 q-130 0 -266.5 44.5t-229.5 121.5z" />
<glyph horiz-adv-x="1230" d="M193 487l69 367q25 130 77 235.5t131.5 187t196 126.5t259.5 45q244 0 424 -141l-172 -238q-68 47 -131 68.5t-144 21.5q-112 0 -191.5 -60.5t-101.5 -178.5l-8 -46q116 93 258 93q182 0 280.5 -99.5t98.5 -277.5q0 -101 -23.5 -191.5t-73.5 -167t-121 -132t-171.5 -86.5 t-220.5 -31q-235 0 -357 141t-79 364zM526 487q-21 -105 17 -160t123 -55q102 0 166.5 70t64.5 195q0 149 -152 149q-102 0 -198 -92z" />
<glyph horiz-adv-x="1230" d="M221 0l740 1141h-625l57 293h1002l-43 -222l-772 -1212h-359z" />
<glyph horiz-adv-x="1230" d="M166 346q0 141 80 244t207 166q-56 43 -91.5 107.5t-35.5 142.5q0 92 36.5 172.5t104.5 141t175.5 95.5t240.5 35q201 0 313.5 -91t112.5 -241q0 -219 -246 -362q70 -43 113 -115.5t43 -161.5q0 -219 -161.5 -357t-449.5 -138q-211 0 -326.5 97t-115.5 265zM502 406 q0 -63 44 -99.5t118 -36.5q97 0 161 52t64 137q0 111 -158 153q-229 -55 -229 -206zM655 1020q0 -93 125 -150q193 73 193 195q0 46 -34 74t-101 28q-87 0 -135 -41t-48 -106z" />
<glyph horiz-adv-x="1230" d="M160 123l172 237q68 -47 130.5 -68.5t143.5 -21.5q112 0 191.5 60.5t101.5 179.5l8 45q-115 -92 -258 -92q-182 0 -280.5 99.5t-98.5 277.5q0 127 39.5 236.5t115.5 192.5t195 131t269 48q234 0 353.5 -141.5t76.5 -364.5l-72 -367q-116 -593 -649 -593q-264 0 -438 141z M612 893q0 -150 152 -150q101 0 199 93l20 106q21 105 -16.5 160t-122.5 55q-102 0 -167 -69.5t-65 -194.5z" />
<glyph horiz-adv-x="1230" d="M194 354.5q-2 80.5 13 169.5l76 385q23 118 68.5 213.5t117 170.5t177 116t237.5 41q103 0 183 -28t129.5 -77.5t78.5 -117.5t31 -148.5t-13 -169.5l-73 -385q-23 -118 -68.5 -213.5t-117.5 -170t-177.5 -115.5t-237.5 -41q-103 0 -183.5 28t-130 77.5t-79 117t-31.5 148 zM530 561l306 608q-93 -1 -153 -71t-83 -189zM596 268q21 -6 66 -6q94 0 155 71t84 189l76 387q16 86 6 125z" />
<glyph horiz-adv-x="1230" d="M123 139l166 256q221 -112 379 -112q105 0 161 46.5t56 110.5q0 34 -19 61t-51 45t-73.5 34t-87.5 32t-92.5 34.5t-88 45.5t-73.5 61.5t-51 86.5t-19 116q0 212 109.5 336t322.5 150l31 149h272l-33 -157q182 -38 316 -136l-189 -245q-153 102 -303 102q-90 0 -137 -34.5 t-47 -90.5q0 -35 31 -61.5t80 -45.5t109 -39t119.5 -49.5t108.5 -68.5t80 -104.5t31 -149.5q0 -92 -13.5 -164.5t-46.5 -137t-86.5 -109t-137 -74t-195.5 -39.5l-35 -183h-273l37 195q-105 19 -202 58t-156 81z" />
<glyph horiz-adv-x="1230" d="M119 0l47 242q50 20 78 33t69.5 38.5t64 52t39.5 67.5t17 91q0 40 -6 70h-231l49 244l162 26q-9 65 -9 107q0 99 31.5 180t84.5 136t126.5 92t154.5 54t171 17q125 0 244.5 -37.5t201.5 -95.5l-160 -238q-160 82 -301 82q-30 0 -57 -4t-59.5 -17.5t-55.5 -35t-39 -60.5 t-16 -90q0 -28 8 -90h453l-53 -270h-392q2 -16 2 -64q0 -151 -114 -239v-6h575l-55 -285h-1030z" />
<glyph horiz-adv-x="1306" d="M254 190l47 244h264l19 96h-265l48 244h155l-205 660h373l123 -551h12l338 551h383l-463 -660h156l-47 -244h-264l-19 -96h265l-48 -244h-264l-37 -190h-344l37 190h-264z" />
<glyph horiz-adv-x="1230" d="M166 471l39 205h110l17 78h-111l39 204h113l2 15q36 225 189 351t417 126q124 0 239.5 -39.5t202.5 -110.5l-172 -225q-91 47 -157.5 66.5t-149.5 19.5q-95 0 -159.5 -50.5t-77.5 -137.5l-2 -15h327l-39 -204h-329l-17 -78h330l-39 -205h-330l-2 -8q-20 -86 25 -137.5 t139 -51.5q82 0 151 18.5t187 67.5l109 -221q-239 -153 -508 -153q-258 0 -372.5 124.5t-62.5 352.5l2 8h-110z" />
<glyph horiz-adv-x="681" d="M373 1092l125 444h321l-223 -444h-223z" />
</font>
</defs>
</svg>
